• 26
  • 28
  • done
Anonymous Downloadondemand_video
Warning! Use a VPN When Downloading Torrents!
Your IP Address is ,
Your Internet Provider can see when you download torrents! Hide your IP ADDRESS with a VPN
We strongly recommend hide.me VPN to hide your torrenting. It's FREE!
DOWNLOAD VPN
70%

Lover (2018)

  • Action Romance Drama
  • Raj is carefree custom-bike maker who yearns for a family of his own. Charita is a responsible nurse who wants to lead a life that is worth something. However, when she gets embroiled in a deadly conspiracy, how will the lovers get out of the dangerous situation?

    expand_more
    Telugu

    Description

    https://MovCr.to

    IMDB : https://www.imdb.com/title/tt8071204/

    Rebel Khiladi (Lover) (2019) 720p Hindi Dubbed HDRip x264 AAC ESubs 950MB - MovCr

    image

    **Media Info :

    General

    Unique ID                                : 130594653136559119565628848987024550359 (0x623F9D84A5312643BF119D64640A69D7)

    Complete name                            : www.MovCr.to - Rebel Khiladi (Lover) (2019) 720p Hindi Dubbed HDRip x264 AAC ESubs 950MB - MovCr.mkv

    Format                                   : Matroska

    Format version                           : Version 4 / Version 2

    File size                                : 961 MiB

    Duration                                 : 1 h 43 min

    Overall bit rate                         : 1 294 kb/s

    Movie name                               : www.MovCr.to

    Encoded date                             : UTC 2019-12-02 19:01:49

    Writing application                      : mkvmerge v32.0.0 ('Astral Progressions') 64-bit

    Writing library                          : libebml v1.3.7 + libmatroska v1.5.0

    Video

    ID                                       : 1

    Format                                   : AVC

    Format/Info                              : Advanced Video Codec

    Format profile                           : [email protected]

    Format settings                          : CABAC / 2 Ref Frames

    Format settings, CABAC                   : Yes

    Format settings, RefFrames               : 2 frames

    Codec ID                                 : V_MPEG4/ISO/AVC

    Duration                                 : 1 h 43 min

    Bit rate                                 : 1 096 kb/s

    Width                                    : 1 280 pixels

    Height                                   : 544 pixels

    Display aspect ratio                     : 2.35:1

    Frame rate mode                          : Constant

    Frame rate                               : 24.000 FPS

    Color space                              : YUV

    Chroma subsampling                       : 4:2:0

    Bit depth                                : 8 bits

    Scan type                                : Progressive

    Bits/(Pixel*Frame)                       : 0.066

    Stream size                              : 814 MiB (85%)

    Title                                    : www.MovCr.to

    Language                                 : Hindi

    Default                                  : Yes

    Forced                                   : No

    Audio

    ID                                       : 2

    Format                                   : AAC

    Format/Info                              : Advanced Audio Codec

    Format profile                           : LC

    Codec ID                                 : A_AAC-2

    Duration                                 : 1 h 43 min

    Bit rate                                 : 192 kb/s

    Channel(s)                               : 2 channels

    Channel positions                        : Front: L R

    Sampling rate                            : 48.0 kHz

    Frame rate                               : 46.875 FPS (1024 SPF)

    Compression mode                         : Lossy

    Stream size                              : 145 MiB (15%)

    Title                                    : www.MovCr.to

    Language                                 : Hindi

    Default                                  : Yes

    Forced                                   : No

    Text

    ID                                       : 3

    Format                                   : UTF-8

    Codec ID                                 : S_TEXT/UTF8

    Codec ID/Info                            : UTF-8 Plain Text

    Duration                                 : 1 h 43 min

    Bit rate                                 : 63 b/s

    Count of elements                        : 1623

    Stream size                              : 48.3 KiB (0%)

    Title                                    : www.MovCr.to

    Language                                 : English

    Default                                  : Yes

    Forced                                   : No

    **

    image

    image

    image

    image

    image

    image

    image

    image

    image

    image


    More at ibit.to
    And ibit.uno
    And ibit.am
    And ibit.ws

    Reviews

    Comments

    Files

    www.MovCr.to - Rebel Khiladi (Lover) (2019) 720p Hindi Dubbed HDRip x264 AAC ESubs 950MB - MovCr.mkv 961 MB

    Stream

    Downloading Seeding www.MovCr.to - Rebel Khiladi (Lover) (2019) 720p Hindi Dubbed HDRip x264 AAC ESubs 950MB - MovCr.mkv from to 0 peers.
    of
    0 b/s / ↗0 b/s