• 0
  • 0
  • done
Anonymous Downloadondemand_video
  • Zombie Roadkill.S01.2010
  • 320 MB
  • rasta-dj
  • Zombie Roadkill S01 2010
  • Зарубежные сериалы
Warning! Use a VPN When Downloading Torrents!
Your IP Address is ,
Your Internet Provider can see when you download torrents! Hide your IP ADDRESS with a VPN
We strongly recommend Trust.Zone VPN to hide your torrenting. It's FREE!
DOWNLOAD VPN

Description

Дорожные зомби / Зомби с дороги / Zombie Roadkill

Слоган: Уважай природу, мать твою.

image

Год выпуска : 2010

Страна : USA

Жанр : ужасы, комедия

Продолжительность : 3~7 мин

Перевод : любительский одноголосый закадровый (zamez)

Русские субтитры : нет

Режиссёр : Девид Грин / David Green

В ролях : Майкл Блейклок, Томас Хейден Чёрч, Джефф Д’Агостино, Дэвид Дорфман, Шерилин Уилсон, Тони Винн

Описание : Группа подростков направляется на отдых к озеру, по пути они въезжают на незнакомую дорогу и случайно переезжают белку. К несчастью дорога оказалась проклята, все кто умирают недалеко от нее — оживают уже в другом обличье. Ожившая зомби-белка начинает преследовать горе-путешественников

Доп. информация : Сериал состоит из 6 серий по 5 минут. Черный юмор и истеричный смех гарантирован. Огромное спасибо merrzavka и zamez за перевод и озвучку этого маленького "шедевра".

Релиз от: image

Альтернативные раздачи
Сэмпл

Качество : DVDRip

Формат : AVI

Видео кодек : XviD

Аудио кодек : MP3

Видео : 704x384 (16:9), 24 fps, ~1560 kbp, 0.241 bit/pixel

Аудио : 48 kHz, МР3 2 ch, ~128.00 kbps rus

Список серий

  1. Все началось с Белочки или Око за Око.
    1. Мгла или Запах смерти.
    2. Тупик или Закрытая дорога.
    3. Проклятое место или Убийство пушистых.
    4. Я лось, просто лось или Жаркий день в аду.
    5. Все сначало или Тупик.

MI

Общее
Полное имя : E:Фильмы!Zombie Roadkill.S01.2010Zombie Roadkill. S01E01.2010 Xixidok.avi
Формат : AVI
Формат/Информация : Audio Video Interleave
Размер файла : 83,6 Мбайт
Продолжительность : 6 м. 52 с.
Общий поток : 1699 Кбит/сек
Программа кодирования : VirtualDubMod 1.5.10.3 (build 2550/release)
Библиотека кодирования : VirtualDubMod build 2550/release

Видео
Идентификатор : 0
Формат : MPEG-4 Visual
Профиль формата : Advanced [email protected]
Параметр BVOP формата : 2
Параметр QPel формата : Нет
Параметр GMC формата : Без точки перехода
Параметр матрицы формата : Default (H.263)
Идентификатор кодека : XVID
Идентификатор кодека/Подсказка : XviD
Продолжительность : 6 м. 52 с.
Битрейт : 1561 Кбит/сек
Ширина : 704 пикс.
Высота : 384 пикс.
Соотношение сторон : 16:9
Частота кадров : 24,000 кадр/сек
Цветовое пространство : YUV
Подвыборка цветности : 4:2:0
Битовая глубина : 8 бит
Тип развёртки : Прогрессивная
Метод сжатия : С потерями
Бит/(Пиксели*Кадры) : 0.241
Размер потока : 76,8 Мбайт (92%)
Библиотека кодирования : XviD 1.2.1 (UTC 2008-12-04)

Аудио
Идентификатор : 1
Формат : MPEG Audio
Версия формата : Version 1
Профиль формата : Layer 3
Режим : Joint stereo
Расширение режима : MS Stereo
Идентификатор кодека : 55
Идентификатор кодека/Подсказка : MP3
Продолжительность : 6 м. 52 с.
Вид битрейта : Постоянный
Битрейт : 128 Кбит/сек
Каналы : 2 канала
Частота : 48,0 КГц
Метод сжатия : С потерями
Размер потока : 6,30 Мбайт (8%)
Выравнивание : Соединение по промежуткам
Продолжительность промежутка : 42 мс. (1,00 видеокадр)
Время предзагрузки промежутка : 504 ms

Скриншоты

image image image image image image image image


More at ibit.to
And ibit.uno
And ibit.ws

Comments

8 years ago

Дополните тех. данные. О тех. данныхДобавьте ссылку на предыдущие и альтернативные раздачи. О ссылках на предыдущие и альтернативные раздачи...

8 years ago

Цитата: 1. Для видео - формат файла, использованный видеокодек, разрешение кадра (в пикселях), значение видеобитрейта (kbps) и частота кадров в секунду (fps), а так же фактор качества (bit/pixel) В MediaInfo это естьА насчет ссылки внимательно читайте правила, там написано как правильно сделать

8 years ago

Прикольный сериал, только мало

8 years ago

вот это приколюха, жаль очень мало....

8 years ago

встаньте на раздачу хоть кто-нибудь

8 years ago

Без оригинального звука... Автор - редиска.

8 years ago

Спасибо, но мало! Интересно, будут ли снимать дальше? Или поприкалывались, и хватит! Кстати, исполительные продюссеры фильма - Сэм Рэйми и Роберт Тейперт (Evil Dead).

8 years ago

Мля, шестая серия просто ржака. Повезло парню, таки нашёл свою пассию :-D

7 years ago

Хочу еще! пжалуста, пжалуста, пжалуста!!!!!!!!!!

7 years ago

Самый правильный фильм о зомби! =)

6 years ago

Поразительно НЕОЖИДАННО! и СВЕЖО!Я доволен!

6 years ago

Интересно, но мне кажется такие минисериалы стоит слепливать в один файл - удобнее смотреть, да и как фильм получается.

6 years ago

Praudmur ага, а если еще снимут-переведут-озвучат? придется новый фильм делать что ли?

6 years ago

Дико угарный сериал, жаль что полнометражным фильмом не сняли, а так слишком мало. Даю 10 по 10-ибальной!

Files

Zombie Roadkill. S01E04.2010 Xixidok.avi 53 MB
Zombie Roadkill. S01E01.2010 Xixidok.avi 84 MB
Zombie Roadkill. S01E02.2010 Xixidok.avi 34 MB
Zombie Roadkill. S01E05.2010 Xixidok.avi 33 MB
Zombie Roadkill. S01E06.2010 Xixidok.avi 46 MB
Zombie Roadkill. S01E03.2010 Xixidok.avi 70 MB

Stream

Downloading Seeding Zombie Roadkill.S01.2010 from to 0 peers.
of
0 b/s / ↗0 b/s