• 0
  • 0
  • 16
Anonymous Downloadondemand_video
  • Wolves.2016.HDRip.XviD.AC3-iFT[PRiME]
  • 1.9 GB
  • sub7
  • Wolves 2016 HDRip XviD PRiME
  • English
  • Divx/Xvid
Warning! Use a VPN When Downloading Torrents!
Your IP Address is ,
Your Internet Provider can see when you download torrents! Hide your IP ADDRESS with a VPN
We strongly recommend Trust.Zone VPN to hide your torrenting. It's FREE!
DOWNLOAD VPN
58%

Wolves (2016)

  • Drama
  • Anthony Keller, star of his NYC high school basketball team, is riding his way to Cornell on a sports scholarship. But he can only maintain his popular jock facade for so long, as his troubled father Lee has a gambling addiction that threatens to derail his dreams both on and off the court.

    expand_more
    English

    Description

    Wolves.2016.HDRip.XviD.AC3-iFT[PRiME]

    ImDb: http://www.imdb.com/title/tt4623856

    image

    Complete name : Wolves.2016.HDRip.XviD.AC3-iFT[PRiME].avi
    Format : AVI
    Format/Info : Audio Video Interleave
    File size : 1.91 GiB
    Duration : 1 h 48 min
    Overall bit rate : 2 508 kb/s
    Writing application : VirtualDubMod 1.5.10.2 (build 2540/release)
    Writing library : VirtualDubMod build 2540/release

    Video
    ID : 0
    Format : MPEG-4 Visual
    Format profile : Advanced [email protected]
    Format settings, BVOP : 2
    Format settings, QPel : No
    Format settings, GMC : No warppoints
    Format settings, Matrix : Default (H.263)
    Muxing mode : Packed bitstream
    Codec ID : XVID
    Codec ID/Hint : XviD
    Duration : 1 h 48 min
    Bit rate : 2 115 kb/s
    Width : 720 pixels
    Height : 304 pixels
    Display aspect ratio : 2.35:1
    Frame rate : 23.976 (23976/1000) FPS
    Color space : YUV
    Chroma subsampling : 4:2:0
    Bit depth : 8 bits
    Scan type : Progressive
    Compression mode : Lossy
    Bits/(Pixel*Frame) : 0.403
    Stream size : 1.61 GiB (84%)
    Writing library : XviD 73

    Audio
    ID : 1
    Format : AC-3
    Format/Info : Audio Coding 3
    Mode extension : CM (complete main)
    Format settings, Endianness : Big
    Codec ID : 2000
    Duration : 1 h 48 min
    Bit rate mode : Constant
    Bit rate : 384 kb/s
    Channel(s) : 6 channels
    Channel positions : Front: L C R, Side: L R, LFE
    Sampling rate : 48.0 kHz
    Frame rate : 31.250 FPS (1536 spf)
    Compression mode : Lossy
    Stream size : 299 MiB (15%)
    Alignment : Split accross interleaves
    Interleave, duration : 42 ms (1.00 video frame)
    Interleave, preload duration : 500 ms

    image

    Click Image To View Full Size

    image
    Click To View Screenshot
    Click To View Screenshot
    Click To View Screenshot


    More at ibit.to
    And ibit.uno
    And ibit.ws

    Reviews

    Comments

    Files

    English.srt 111 kB
    Please Support!! Read More!!!.txt 200 B
    Sample[PRiME].avi 21 MB
    Torrent Downloaded From 1337x.to.txt 100 B
    Torrent Downloaded From ExtraTorrent.cc.txt 400 B
    Wolves.2016.HDRip.XviD.AC3-iFT[PRiME].avi 1.9 GB
    Sample/Sample[PRiME].avi 21 MB

    Stream

    Downloading Seeding Wolves.2016.HDRip.XviD.AC3-iFT[PRiME] from to 0 peers.
    of
    0 b/s / ↗0 b/s