• 2
  • 2
Anonymous Download
  • When Marnie Was There (2014) 1080p BDRip x265 DTS-HD MA 5.0 Goki [SEV]
  • 7.1 GB
  • goki
  • Marnie 2014 1080p BDRip x265 DTS Goki SEV
  • English
  • Dubbed/Subbed
Warning! Use a VPN When Downloading Torrents!
Your IP Address is ,
Your Internet Provider can see when you download torrents! Hide your IP ADDRESS with a VPN
We strongly recommend Trust.Zone VPN to hide your torrenting. It's FREE!
DOWNLOAD VPN

Description

imageimage

imageimage

Screenshots

imageimageimageimage

Media Information

Unique ID                                : 63338302760438537888285254462498055959 (0x2FA6836D9CB8AC682F230686724AA717)

Complete name                            : When Marnie Was There (2014) 1080p BDRip x265 DTS-HD MA 5.0 Goki [SEV].mkv

Format                                   : Matroska

Format version                           : Version 4

File size                                : 7.12 GiB

Duration                                 : 1 h 42 min

Overall bit rate mode                    : Variable

Overall bit rate                         : 9 935 kb/s

Movie name                               : When Marnie Was There (2014) 1080p BDRip x265 DTS-HD MA 5.0 Goki [SEV]

Encoded date                             : UTC 2019-06-13 01:39:24

Writing application                      : mkvmerge v28.2.0 ('The Awakening') 64-bit

Writing library                          : libebml v1.3.6 + libmatroska v1.4.9

Video

ID                                       : 1

Format                                   : HEVC

Format/Info                              : High Efficiency Video Coding

Format profile                           : Main [email protected]@Main

Codec ID                                 : V_MPEGH/ISO/HEVC

Duration                                 : 1 h 42 min

Bit rate                                 : 5 903 kb/s

Width                                    : 1 920 pixels

Height                                   : 1 080 pixels

Display aspect ratio                     : 16:9

Frame rate mode                          : Constant

Frame rate                               : 23.976 (24000/1001) FPS

Color space                              : YUV

Chroma subsampling                       : 4:2:0

Bit depth                                : 10 bits

Bits/(Pixel*Frame)                       : 0.119

Stream size                              : 4.23 GiB (59%)

Writing library                          : x265 2.9+8-27d8424c799d:[Windows][MSVC 1915][64 bit] 10bit

Encoding settings                        : cpuid=1111039 / frame-threads=2 / numa-pools=4 / wpp / no-pmode / no-pme / no-psnr / no-ssim / log-level=2 / input-csp=1 / input-res=1920x1080 / interlace=0 / total-frames=0 / level-idc=0 / high-tier=1 / uhd-bd=0 / ref=4 / no-allow-non-conformance / no-repeat-headers / annexb / no-aud / no-hrd / info / hash=0 / no-temporal-layers / open-gop / min-keyint=23 / keyint=250 / gop-lookahead=0 / bframes=8 / b-adapt=2 / b-pyramid / bframe-bias=0 / rc-lookahead=100 / lookahead-slices=4 / scenecut=40 / radl=0 / no-intra-refresh / ctu=64 / min-cu-size=8 / no-rect / no-amp / max-tu-size=32 / tu-inter-depth=2 / tu-intra-depth=2 / limit-tu=4 / rdoq-level=2 / dynamic-rd=0.00 / no-ssim-rd / signhide / no-tskip / nr-intra=0 / nr-inter=0 / no-constrained-intra / no-strong-intra-smoothing / max-merge=3 / limit-refs=2 / limit-modes / me=3 / subme=5 / merange=57 / temporal-mvp / weightp / weightb / no-analyze-src-pics / deblock=0:0 / sao / no-sao-non-deblock / rd=6 / no-early-skip / rskip / no-fast-intra / no-tskip-fast / no-cu-lossless / b-intra / no-splitrd-skip / rdpenalty=0 / psy-rd=1.30 / psy-rdoq=2.00 / no-rd-refine / no-lossless / cbqpoffs=0 / crqpoffs=0 / rc=crf / crf=17.0 / qcomp=0.60 / qpstep=4 / stats-write=0 / stats-read=0 / ipratio=1.40 / pbratio=1.30 / aq-mode=2 / aq-strength=1.10 / cutree / zone-count=0 / no-strict-cbr / qg-size=32 / no-rc-grain / qpmax=69 / qpmin=0 / no-const-vbv / sar=1 / overscan=0 / videoformat=5 / range=0 / colorprim=2 / transfer=2 / colormatrix=2 / chromaloc=0 / display-window=0 / max-cll=0,0 / min-luma=0 / max-luma=1023 / log2-max-poc-lsb=8 / vui-timing-info / vui-hrd-info / slices=1 / no-opt-qp-pps / no-opt-ref-list-length-pps / no-multi-pass-opt-rps / scenecut-bias=0.05 / no-opt-cu-delta-qp / no-aq-motion / no-hdr / no-hdr-opt / no-dhdr10-opt / no-idr-recovery-sei / analysis-reuse-level=5 / scale-factor=0 / refine-intra=0 / refine-inter=0 / refine-mv=0 / no-limit-sao / ctu-info=0 / no-lowpass-dct / refine-mv-type=0 / copy-pic=1 / max-ausize-factor=1.0 / no-dynamic-refine / no-single-sei

Language                                 : English

Default                                  : Yes

Forced                                   : No

Audio #1

ID                                       : 2

Format                                   : DTS XLL

Format/Info                              : Digital Theater Systems

Commercial name                          : DTS-HD Master Audio

Codec ID                                 : A_DTS

Duration                                 : 1 h 42 min

Bit rate mode                            : Variable

Bit rate                                 : 1 911 kb/s

Channel(s)                               : 5 channels

Channel layout                           : C L R Ls Rs

Sampling rate                            : 48.0 kHz

Frame rate                               : 93.750 FPS (512 SPF)

Bit depth                                : 16 bits

Compression mode                         : Lossless

Stream size                              : 1.37 GiB (19%)

Title                                    : Surround 5.0

Language                                 : English

Default                                  : Yes

Forced                                   : No

Audio #2

ID                                       : 3

Format                                   : DTS XLL

Format/Info                              : Digital Theater Systems

Commercial name                          : DTS-HD Master Audio

Codec ID                                 : A_DTS

Duration                                 : 1 h 42 min

Bit rate mode                            : Variable

Bit rate                                 : 2 083 kb/s

Channel(s)                               : 5 channels

Channel layout                           : C L R Ls Rs

Sampling rate                            : 48.0 kHz

Frame rate                               : 93.750 FPS (512 SPF)

Bit depth                                : 16 bits

Compression mode                         : Lossless

Stream size                              : 1.49 GiB (21%)

Title                                    : Surround 5.0

Language                                 : Japanese

Default                                  : No

Forced                                   : No

Text #1

ID                                       : 4

Format                                   : PGS

Codec ID                                 : S_HDMV/PGS

Codec ID/Info                            : Picture based subtitle format used on BDs/HD-DVDs

Duration                                 : 1 h 37 min

Bit rate                                 : 19.9 kb/s

Count of elements                        : 2261

Stream size                              : 13.9 MiB (0%)

Language                                 : English

Default                                  : No

Forced                                   : No

Text #2

ID                                       : 5

Format                                   : PGS

Codec ID                                 : S_HDMV/PGS

Codec ID/Info                            : Picture based subtitle format used on BDs/HD-DVDs

Duration                                 : 1 h 35 min

Bit rate                                 : 15.5 kb/s

Count of elements                        : 2049

Stream size                              : 10.6 MiB (0%)

Language                                 : English

Default                                  : No

Forced                                   : No

Menu

00:00:00.000                             : en:Chapter 01

00:05:45.345                             : en:Chapter 02

00:12:41.802                             : en:Chapter 03

00:24:33.180                             : en:Chapter 04

00:34:30.526                             : en:Chapter 05

00:42:20.996                             : en:Chapter 06

00:50:57.679                             : en:Chapter 07

00:57:20.437                             : en:Chapter 08

01:06:36.242                             : en:Chapter 09

01:14:00.686                             : en:Chapter 10

01:23:58.908                             : en:Chapter 11

01:36:35.581                             : en:Chapter 12

Source Information

Unique ID                                : 182603785493725564644941379907773892942 (0x896035B8578194E62FA24B69669D894E)

Complete name                            : WHEN MARNIE WAS THERE.mkv

Format                                   : Matroska

Format version                           : Version 2

File size                                : 21.3 GiB

Duration                                 : 1 h 42 min

Overall bit rate mode                    : Variable

Overall bit rate                         : 29.8 Mb/s

Movie name                               : WHEN MARNIE WAS THERE

Encoded date                             : UTC 2019-06-11 07:24:59

Writing application                      : MakeMKV v1.14.2 win(x64-release)

Writing library                          : libmakemkv v1.14.2 (1.3.5/1.4.7) win(x64-release)

Video

ID                                       : 1

ID in the original source medium         : 4113 (0x1011)

Format                                   : AVC

Format/Info                              : Advanced Video Codec

Format profile                           : [email protected]

Format settings                          : CABAC / 4 Ref Frames

Format settings, CABAC                   : Yes

Format settings, RefFrames               : 4 frames

Codec ID                                 : V_MPEG4/ISO/AVC

Duration                                 : 1 h 42 min

Bit rate mode                            : Variable

Bit rate                                 : 25.7 Mb/s

Maximum bit rate                         : 32.0 Mb/s

Width                                    : 1 920 pixels

Height                                   : 1 080 pixels

Display aspect ratio                     : 16:9

Frame rate mode                          : Constant

Frame rate                               : 23.976 (24000/1001) FPS

Standard                                 : NTSC

Color space                              : YUV

Chroma subsampling                       : 4:2:0

Bit depth                                : 8 bits

Scan type                                : Progressive

Bits/(Pixel*Frame)                       : 0.517

Stream size                              : 18.4 GiB (86%)

Language                                 : English

Default                                  : No

Forced                                   : No

Color range                              : Limited

Color primaries                          : BT.709

Transfer characteristics                 : BT.709

Matrix coefficients                      : BT.709

Original source medium                   : Blu-ray

Audio #1

ID                                       : 2

ID in the original source medium         : 4352 (0x1100)

Format                                   : DTS XLL

Format/Info                              : Digital Theater Systems

Commercial name                          : DTS-HD Master Audio

Codec ID                                 : A_DTS

Duration                                 : 1 h 42 min

Bit rate mode                            : Variable

Bit rate                                 : 1 911 kb/s

Channel(s)                               : 5 channels

Channel layout                           : C L R Ls Rs

Sampling rate                            : 48.0 kHz

Frame rate                               : 93.750 FPS (512 SPF)

Bit depth                                : 16 bits

Compression mode                         : Lossless

Stream size                              : 1.37 GiB (6%)

Title                                    : Surround 5.0

Language                                 : English

Default                                  : Yes

Forced                                   : No

Original source medium                   : Blu-ray

Audio #2

ID                                       : 3

ID in the original source medium         : 4353 (0x1101)

Format                                   : DTS XLL

Format/Info                              : Digital Theater Systems

Commercial name                          : DTS-HD Master Audio

Codec ID                                 : A_DTS

Duration                                 : 1 h 42 min

Bit rate mode                            : Variable

Bit rate                                 : 2 083 kb/s

Channel(s)                               : 5 channels

Channel layout                           : C L R Ls Rs

Sampling rate                            : 48.0 kHz

Frame rate                               : 93.750 FPS (512 SPF)

Bit depth                                : 16 bits

Compression mode                         : Lossless

Stream size                              : 1.49 GiB (7%)

Title                                    : Surround 5.0

Language                                 : Japanese

Default                                  : No

Forced                                   : No

Original source medium                   : Blu-ray

Text #1

ID                                       : 4

ID in the original source medium         : 4608 (0x1200)

Format                                   : PGS

Codec ID                                 : S_HDMV/PGS

Codec ID/Info                            : Picture based subtitle format used on BDs/HD-DVDs

Duration                                 : 1 h 37 min

Bit rate                                 : 19.9 kb/s

Count of elements                        : 2261

Stream size                              : 13.9 MiB (0%)

Language                                 : English

Default                                  : No

Forced                                   : No

Original source medium                   : Blu-ray

Text #2

ID                                       : 6

ID in the original source medium         : 4609 (0x1201)

Format                                   : PGS

Codec ID                                 : S_HDMV/PGS

Codec ID/Info                            : Picture based subtitle format used on BDs/HD-DVDs

Duration                                 : 1 h 35 min

Bit rate                                 : 15.5 kb/s

Count of elements                        : 2049

Stream size                              : 10.6 MiB (0%)

Language                                 : English

Default                                  : No

Forced                                   : No

Original source medium                   : Blu-ray

Menu

00:00:00.000                             : en:Chapter 01

00:05:45.345                             : en:Chapter 02

00:12:41.802                             : en:Chapter 03

00:24:33.180                             : en:Chapter 04

00:34:30.526                             : en:Chapter 05

00:42:20.996                             : en:Chapter 06

00:50:57.679                             : en:Chapter 07

00:57:20.437                             : en:Chapter 08

01:06:36.242                             : en:Chapter 09

01:14:00.686                             : en:Chapter 10

01:23:58.908                             : en:Chapter 11

01:36:35.581                             : en:Chapter 12

.........................................................................................................................................

We have no issue with individuals posting or re-uploading our torrents on a platform we aren't on. However, if this is something you'd like to do, please do so in a 'as-is' format. We ask that you do not create a new torrent, include all descriptions you see above including the SEV logo, tags, notes and screenshots. If you'd like to become a permanent poster on a website we don't post to, feel free to get in contact with a Sublime Encoded Video member.

**We are recruiting/training new members for SEV & seedbox providers as well as people to help out with subtitles.

As you already know, we deliver quality, so you know the standard.

If you're interested, feel free to contact any of the team members.**


More at ibit.to
And ibit.uno
And ibit.ws

Comments

Files

When Marnie Was There (2014) 1080p BDRip x265 DTS-HD MA 5.0 Goki [SEV]-banner.jpg 167 kB
When Marnie Was There (2014) 1080p BDRip x265 DTS-HD MA 5.0 Goki [SEV]-clearart.png 401 kB
When Marnie Was There (2014) 1080p BDRip x265 DTS-HD MA 5.0 Goki [SEV]-clearlogo.png 83 kB
When Marnie Was There (2014) 1080p BDRip x265 DTS-HD MA 5.0 Goki [SEV]-disc.png 438 kB
When Marnie Was There (2014) 1080p BDRip x265 DTS-HD MA 5.0 Goki [SEV]-fanart.jpg 267 kB
When Marnie Was There (2014) 1080p BDRip x265 DTS-HD MA 5.0 Goki [SEV]-keyart.jpg 996 kB
When Marnie Was There (2014) 1080p BDRip x265 DTS-HD MA 5.0 Goki [SEV]-logo.png 83 kB
When Marnie Was There (2014) 1080p BDRip x265 DTS-HD MA 5.0 Goki [SEV]-poster.jpg 75 kB
When Marnie Was There (2014) 1080p BDRip x265 DTS-HD MA 5.0 Goki [SEV]-thumb.jpg 493 kB
When Marnie Was There (2014) 1080p BDRip x265 DTS-HD MA 5.0 Goki [SEV].mkv 7.1 GB
When Marnie Was There (2014) 1080p BDRip x265 DTS-HD MA 5.0 Goki [SEV].nfo 8.2 kB

Stream

Downloading Seeding When Marnie Was There (2014) 1080p BDRip x265 DTS-HD MA 5.0 Goki [SEV] from to 0 peers.
of
0 b/s / ↗0 b/s