• -
  • -
  • done
Download

Description

Разноцветный мир / What a ColourFul World

image


Год выпуска : 2021

Страна : Австрия

Студия : Terra Mater Factual Studios

Жанр : Документальный, природа, флора, фауна

Продолжительность : 00:49:59

Перевод : Студийный (одноголосый закадровый)

Доп. инфо о переводе : 1 ТВЧ

Режиссер : Petra Lederhilger, Sabine Holzer / Петра Ледерхильгер, Сабина Хольцер


Описание : Цвет - прекрасный предупреждающий знак, благодаря которому выживают бабочки - монархи: они путешествуют огромными стаями, привлекая внимание птиц и других хищников, но яркая окраска отпугивает врагов. Наша планета - это целая симфония цветов, которую создают живые существа и ландшафты, на которых они обитают.


Сэмпл


Тип релиза : HDTVRip

Контейнер : AVI

Видео : 704x400 (16:9), 25 fps, Dvix5, 1762 kbps avg

Аудио : Русский 48 kHz, AC3 Dolby Digital, 2/0 (L,R) ch, ~192.00 kbps avg


MediaInfo

`
General
Complete name : D:ФильмыРазноцветный мир.HDTVRip.2021.[Aids].avi
Format : AVI
Format/Info : Audio Video Interleave
File size : 702 MiB
Duration : 49 min 59 s
Overall bit rate : 1 964 kb/s
Writing application : VirtualDubMod 1.5.10.3 | www.virtualdub-fr.org || (build 2550/release)
Writing library : VirtualDubMod build 2550/release

Video
ID : 0
Format : MPEG-4 Visual
Format profile : Advanced [email protected]
Format settings : BVOP1
Format settings, BVOP : 1
Format settings, QPel : No
Format settings, GMC : No warppoints
Format settings, Matrix : Default (H.263)
Codec ID : DX50
Codec ID/Hint : DivX 5
Duration : 49 min 59 s
Bit rate : 1 762 kb/s
Width : 704 pixels
Height : 400 pixels
Display aspect ratio : 16:9
Frame rate : 25.000 FPS
Color space : YUV
Chroma subsampling : 4:2:0
Bit depth : 8 bits
Scan type : Progressive
Compression mode : Lossy
Bits/(Pixel*Frame) : 0.250
Stream size : 630 MiB (90%)
Writing library : XviD 1.2.1 (UTC 2008-12-04)

Audio
ID : 1
Format : AC-3
Format/Info : Audio Coding 3
Commercial name : Dolby Digital
Codec ID : 2000
Duration : 49 min 59 s
Bit rate mode : Constant
Bit rate : 192 kb/s
Channel(s) : 2 channels
Channel layout : L R
Sampling rate : 48.0 kHz
Frame rate : 31.250 FPS (1536 SPF)
Compression mode : Lossy
Stream size : 68.6 MiB (10%)
Alignment : Split across interleaves
Interleave, duration : 40 ms (1.00 video frame)
Interleave, preload duration : 500 ms
Service kind : Complete Main

`

Скриншоты

image image image image image

image


More at ibit.to
And ibit.uno
And ibit.am
And ibit.ws

Comments

Files

Stream

Downloading Seeding What a ColourFul World (Petra Lederhilger, Sabine Holzer from to 0 peers.
of
0 b/s / ↗0 b/s