• 34
  • 12
  • 1,269
  • done
Anonymous Downloadondemand_video
  • What Men Want 2019 Movies HDCam x264 Clean Audio New +Sample ☻rD
  • 708 MB
  • basicssom
  • Men Want 2019 Movies HDCam x264 Clean Audio New Sample
  • English
  • Movies
Warning! Use a VPN When Downloading Torrents!
Your IP Address is ,
Your Internet Provider can see when you download torrents! Hide your IP ADDRESS with a VPN
We strongly recommend hide.me VPN to hide your torrenting. It's FREE!
DOWNLOAD VPN
59%

What Men Want (2019)

  • Comedy Fantasy Romance
  • Magically able to hear what men are thinking, a sports agent uses her newfound ability to turn the tables on her overbearing male colleagues.

    expand_more
    English
  • $20,000,000
  • Description

    What Men Want 2019 Movies HDCam x264 Clean Audio New Source with Sample ☻rDX☻

    ===============================================================================================

    SCREEN SHOTS:

    image

    or

    https://iphonehosting.eu/19/bankloan/software/1.html

    File size : 701 MiB

    Duration : 1 h 49 min

    Overall bit rate : 892 kb/s

    Movie name : What Men Want 2019 Movies HDCam x264 Clean Audio New Source ☻rDX☻

    Video

    ID : 2

    Format : AVC

    Format/Info : Advanced Video Codec

    Format profile : [email protected]
    Format settings, CABAC : Yes

    Format settings, ReFrames : 2 frames

    Format settings, GOP : M=1, N=12

    Codec ID : V_MPEG4/ISO/AVC

    Duration : 1 h 49 min

    Bit rate : 810 kb/s

    Width : 700 pixels

    Height : 368 pixels

    Display aspect ratio : 1.902

    Frame rate mode : Constant

    Frame rate : 30.000 FPS

    Color space : YUV

    Chroma subsampling : 4:2:0

    Bit depth : 8 bits

    Scan type : Progressive

    Bits/(Pixel*Frame) : 0.105

    Stream size : 637 MiB (91%)

    Title : ☻rDX☻

    Language : English

    Default : Yes

    Forced : No

    Audio

    ID : 1

    Format : AC-3

    Format/Info : Audio Coding 3

    Mode extension : CM (complete main)

    Format settings, Endianness : Big

    Codec ID : A_AC3

    Duration : 1 h 49 min

    Bit rate mode : Constant

    Bit rate : 64.0 kb/s

    Channel(s) : 2 channels

    Channel positions : Front: L R

    Sampling rate : 44.1 kHz

    Frame rate : 28.711 FPS (1536 spf)

    Bit depth : 16 bits

    Compression mode : Lossy

    Stream size : 50.3 MiB (7%)

    Title : ☻rDX☻

    Default : Yes

    Forced : No

    https://www.imdb.com/title/tt7634968

    image


    More at ibit.to
    And ibit.uno
    And ibit.am
    And ibit.ws

    Reviews

    I knew there was a What a Women Want reboot in the works, and my interest was **zero**. I heard they were flipping the script a la genders, and it was still zee - row. Cast Taraji P. Henson in the lead and I was like: "Fuck... I'm gonna have to watch this now aren't I?" And so I did. But I probably shouldn't have. _Final rating:★½: - Boring/disappointing. Avoid where possible._

    Comments

    Files

    What Men Want 2019 Movies HDCam x264 Clean Audio New Source with Sample ☻rDX☻/Sample ~ What Men Want 2019 Movies HDCam x264 Clean Audio New Source ☻rD 7.0 MB
    What Men Want 2019 Movies HDCam x264 Clean Audio New Source with Sample ☻rDX☻/What Men Want 2019 Movies HDCam x264 Clean Audio New Source ☻rDX☻.mkv 701 MB

    Stream

    Downloading Seeding What Men Want 2019 Movies HDCam x264 Clean Audio New +Sample ☻rD from to 0 peers.
    of
    0 b/s / ↗0 b/s