• 0
  • 0
  • 94
Sponsored Downloadondemand_video
  • Weinberg - S01 E01 - 1080p x265 HEVC - GER (ENG SUBS) [BRSHNKV]
  • 325 MB
  • Baryshnikov
  • Weinberg 1080p x265 HEVC SUBS BRSHNKV
  • German
  • HEVC/x265

Description

A man wakes up, disorientated, in a vineyard in the German Ahr area. Above him, he sees a dead woman in the vines. When he returns to the spot after alerting the people in the village, the body is gone. And soon after, he sees the dead woman, well and alive as the reigning Wine Queen. But when she really disappears, he decides to find out what is going on and he unearths the secrets of the town and its people.

image
image
image
image
image

Tech:

Format : MPEG-4

Format profile : Base Media / Version 2

Codec ID : mp42

File size : 325 MiB

Duration : 52mn 9s

Overall bit rate mode : Variable

Overall bit rate : 872 Kbps

Movie name : Weinberg - 01 - 1080p x265 HEVC [BRSHNKV]

Encoded date : UTC 2017-10-26 18:29:42

Tagged date : UTC 2017-10-26 18:29:42

Writing application : HandBrake 20160211184813-ffd8cb1-master 2016021301

Video

ID : 1

Format : HEVC

Format/Info : High Efficiency Video Coding

Format profile : Main [email protected]@Main

Codec ID : hev1

Codec ID/Info : High Efficiency Video Coding

Duration : 52mn 9s

Bit rate : 701 Kbps

Width : 1 920 pixels

Height : 1 080 pixels

Display aspect ratio : 16:9

Frame rate mode : Constant

Frame rate : 25.000 fps

Color space : YUV

Chroma subsampling : 4:2:0

Bit depth : 10 bits

Bits/(Pixel*Frame) : 0.014

Stream size : 262 MiB (80%)

Writing library : x265 1.9:[Mac OS X][clang 7.0.2][64 bit] 10bit

Encoded date : UTC 2017-10-26 18:29:42

Tagged date : UTC 2017-10-26 18:29:42

Color range : Limited

Color primaries : BT.709

Transfer characteristics : BT.709

Matrix coefficients : BT.709

Audio

ID : 2

Format : AAC

Format/Info : Advanced Audio Codec

Format profile : LC

Codec ID : 40

Duration : 52mn 9s

Bit rate mode : Variable

Bit rate : 164 Kbps

Channel(s) : 2 channels

Channel positions : Front: L R

Sampling rate : 48.0 KHz

Compression mode : Lossy

Stream size : 61.3 MiB (19%)

Title : Stereo / Stereo

Language : German

Encoded date : UTC 2017-10-26 18:29:42

Tagged date : UTC 2017-10-26 18:29:42

Menu

ID : 3

Codec ID : text

Duration : 52mn 9s

Language : English

Encoded date : UTC 2017-10-26 18:29:42

Tagged date : UTC 2017-10-26 18:29:42

Bit rate mode : CBR

00:00:00.000 : Chapter 1

00:03:25.000 : Chapter 2

00:11:47.800 : Chapter 3

00:23:10.400 : Chapter 4

00:31:43.520 : Chapter 5

00:42:25.120 : Chapter 6


More at ibit.to
And ibit.uno
And ibit.ws

Comments

Files

Weinberg 01 - x265 .mp4 325 MB
Weinberg 01 - ENG [BRSHNKV] .ass 30 kB
Weinberg 01 - ENG [BRSHNKV] .srt 24 kB
Torrent Downloaded From Katcr.co - Kickasstorrents.txt 100 B

Stream

Downloading Seeding Weinberg - S01 E01 - 1080p x265 HEVC - GER (ENG SUBS) [BRSHNKV] from to 0 peers.
of
0 b/s / ↗0 b/s