• 0
  • 0
  • 377
Anonymous Downloadondemand_video
  • We Are Monsters 2015 HDRip - x264 - Zi$t♥{FRG}
  • 720 MB
  • Zist313
  • Monsters 2015 HDRip x264 FRG
  • English
  • HD
Warning! Use a VPN When Downloading Torrents!
Your IP Address is ,
Your Internet Provider can see when you download torrents! Hide your IP ADDRESS with a VPN
We strongly recommend Trust.Zone VPN to hide your torrenting. It's FREE!
DOWNLOAD VPN
40%

We Are Monsters (2015)

  • Thriller Drama Horror
  • Emma is kidnapped and imprisoned by a trio of psychopaths.

    English

    Description

    http://www.imdb.com/title/tt4209590/

    image
    image

    General

    Complete name : We Are Monsters 2015

    Format : MPEG-4

    Format profile : Base Media

    Codec ID : isom

    File size : 720 MiB

    Duration : 1h 14mn

    Overall bit rate : 1 358 Kbps

    Movie name : We Are Monsters
    Writing application : Lavf56.15.104

    Comment : We Are Monsters

    Video

    ID : 1

    Format : AVC

    Format/Info : Advanced Video Codec

    Format profile : [email protected]
    Format settings, CABAC : Yes

    Format settings, ReFrames : 3 frames

    Codec ID : avc1

    Codec ID/Info : Advanced Video Coding

    Duration : 1h 14mn

    Bit rate : 1 200 Kbps

    Width : 720 pixels

    Height : 304 pixels

    Display aspect ratio : 2.35:1

    Original display aspect ratio : 2.35:1

    Frame rate mode : Constant

    Frame rate : 25.000 fps

    Color space : YUV

    Chroma subsampling : 4:2:0

    Bit depth : 8 bits

    Scan type : Progressive

    Bits/(Pixel*Frame) : 0.219

    Stream size : 633 MiB (88%)

    Writing library : x264 core 135

    Language : English

    Audio

    ID : 2

    Format : AAC

    Format/Info : Advanced Audio Codec

    Format profile : LC

    Codec ID : 40

    Duration : 1h 14mn

    Bit rate mode : Constant

    Bit rate : 160 Kbps

    Channel(s) : 2 channels

    Channel(s)_Original : 6 channels

    Channel positions : Front: L C R, Side: L R, LFE

    Sampling rate : 48.0 KHz

    Compression mode : Lossy

    Stream size : 84.9 MiB (12%)

    Language : English

    image
    image
    image
    image
    image
    image
    image
    image


    More at ibit.to
    And ibit.uno
    And ibit.ws

    Reviews

    Comments

    Files

    We Are Monsters 2015 HDRip - x264 - Zi$t♥{FRG}.mp4 755 MB

    Stream

    Downloading Seeding We Are Monsters 2015 HDRip - x264 - Zi$t♥{FRG} from to 0 peers.
    of
    0 b/s / ↗0 b/s