• 0
  • 0
  • 163
  • done
Sponsored Downloadondemand_video
  • Vikings S05E16 The Buddha 1080p 5.1 - 2.0 x264 Phun Psyz.mp4
  • 744 MB
  • phunpsyz
  • Vikings S05E16 Buddha 1080p x264 Phun Psyz mp4
  • English
  • HD/X264/H264
100%

Vikings: The Buddha(2019)

  • 5 16
  • Action & Adventure Drama
  • Bjorn achieves one of Ragnar's dreams. Ivar hatches a new plan while preparing for a divine arrival. In Iceland, a settler returns in a terrible state. King Alfred faces his greatest threat yet.

    expand_more
    English

    Description

    www.imdb.com/title/tt6391148/?ref=ttepep16

    Bjorn achieves one of Ragnar's dreams; Ivar hatches a new plan in Kattegat, while preparing for a divine arrival; a settler in Iceland returns in a terrible state; King Alfred faces his greatest threat yet.

    Source: NTb (Amzn)

    image
    image
    image
    image
    image

    Format : MPEG-4

    Format profile : Base Media / Version 2

    Codec ID : mp42 (isom/iso2/avc1/mp41)

    File size : 744 MiB

    Duration : 44 min 16 s

    Overall bit rate mode : Variable

    Overall bit rate : 2 348 kb/s

    Video

    ID : 1

    Format : AVC

    Format/Info : Advanced Video Codec

    Format profile : [email protected]
    Format settings : CABAC / 1 Ref Frames

    Format settings, CABAC : Yes

    Format settings, ReFrames : 1 frame

    Codec ID : avc1

    Codec ID/Info : Advanced Video Coding

    Duration : 44 min 16 s

    Bit rate : 1 862 kb/s

    Width : 1 920 pixels

    Height : 1 080 pixels

    Display aspect ratio : 16:9

    Frame rate mode : Variable

    Frame rate : 23.976 (24000/1001) FPS

    Minimum frame rate : 23.974 FPS

    Maximum frame rate : 23.981 FPS

    Color space : YUV

    Chroma subsampling : 4:2:0

    Bit depth : 8 bits

    Scan type : Progressive

    Bits/(Pixel*Frame) : 0.037

    Stream size : 590 MiB (79%)

    Writing library : x264 core 155 r2901 7d0ff22

    Audio #1

    ID : 2

    Format : AC-3

    Format/Info : Audio Coding 3

    Commercial name : Dolby Digital

    Codec ID : ac-3

    Duration : 44 min 16 s

    Bit rate mode : Constant

    Bit rate : 320 kb/s

    Channel(s) : 6 channels

    Channel layout : L R C LFE Ls Rs

    Sampling rate : 48.0 kHz

    Frame rate : 31.250 FPS (1536 SPF)

    Bit depth : 16 bits

    Compression mode : Lossy

    Stream size : 101 MiB (14%)

    Title : Surround / Surround

    Language : English

    Audio #2

    ID : 3

    Format : AAC LC

    Format/Info : Advanced Audio Codec Low Complexity

    Codec ID : mp4a-40-2

    Duration : 44 min 16 s

    Bit rate mode : Variable

    Bit rate : 160 kb/s

    Channel(s) : 2 channels

    Channel layout : L R

    Sampling rate : 48.0 kHz

    Frame rate : 46.875 FPS (1024 SPF)

    Compression mode : Lossy

    Stream size : 50.7 MiB (7%)

    Title : Stereo / Stereo

    Language : English

    Text

    Language : English

    Default : Yes

    Forced : No


    More at ibit.to
    And ibit.uno
    And ibit.ws

    Reviews

    Comments

    Files

    Vikings S05E16 The Buddha 1080p 5.1 - 2.0 x264 Phun Psyz.mp4 744 MB

    Stream

    Downloading Seeding Vikings S05E16 The Buddha 1080p 5.1 - 2.0 x264 Phun Psyz.mp4 from to 0 peers.
    of
    0 b/s / ↗0 b/s