• 0
  • 0
  • 6
  • done
Anonymous Downloadondemand_video
  • Vikings S05E10 Moments of Vision 1080p 5.1 - 2.0 x264 Phun Psyz
  • 832 MB
  • PhunPsyz
  • Vikings S05E10 Moments Vision 1080p x264 Phun Psyz
  • English
  • HD
Warning! Use a VPN When Downloading Torrents!
Your IP Address is ,
Your Internet Provider can see when you download torrents! Hide your IP ADDRESS with a VPN
We strongly recommend hide.me VPN to hide your torrenting. It's FREE!
DOWNLOAD VPN
85%

Vikings: Vikings(2012)

  • 5 10
  • Documentary
  • Vikings is a 2012 BBC television documentary series written and presented by Neil Oliver charting the rise of the Vikings from prehistoric times to the empire of Canute.

    English

    Description

    www.imdb.com/title/tt5565350/?ref=ttepep10

    A sense of doom looms over Kattegat as bloodshed ensues, but as the defeated army flees in the face of the victors, a legendary warrior makes his way home.

    Source: Deflate

    image
    image
    image
    image
    image

    Format : MPEG-4

    Format profile : Base Media / Version 2

    Codec ID : mp42 (isom/iso2/avc1/mp41)

    File size : 832 MiB

    Duration : 46 min 40 s

    Overall bit rate mode : Variable

    Overall bit rate : 2 491 kb/s

    Video

    ID : 1

    Format : AVC

    Format/Info : Advanced Video Codec

    Format profile : [email protected]
    Format settings : CABAC / 1 Ref Frames

    Format settings, CABAC : Yes

    Format settings, ReFrames : 1 frame

    Codec ID : avc1

    Codec ID/Info : Advanced Video Coding

    Duration : 46 min 40 s

    Source duration : 46 min 40 s

    Bit rate : 2 006 kb/s

    Width : 1 920 pixels

    Height : 1 080 pixels

    Display aspect ratio : 16:9

    Frame rate mode : Variable

    Frame rate : 23.976 (24000/1001) FPS

    Minimum frame rate : 23.974 FPS

    Maximum frame rate : 23.981 FPS

    Color space : YUV

    Chroma subsampling : 4:2:0

    Bit depth : 8 bits

    Scan type : Progressive

    Bits/(Pixel*Frame) : 0.040

    Stream size : 670 MiB (81%)

    Source stream size : 670 MiB (81%)

    Writing library : x264 core 155 r2901 7d0ff22

    Audio #1

    ID : 2

    Format : AC-3

    Format/Info : Audio Coding 3

    Commercial name : Dolby Digital

    Codec ID : ac-3

    Duration : 46 min 38 s

    Bit rate mode : Constant

    Bit rate : 320 kb/s

    Channel(s) : 6 channels

    Channel layout : L R C LFE Ls Rs

    Sampling rate : 48.0 kHz

    Frame rate : 31.250 FPS (1536 SPF)

    Bit depth : 16 bits

    Compression mode : Lossy

    Stream size : 107 MiB (13%)

    Title : Surround / Surround

    Language : English

    Audio #2

    ID : 3

    Format : AAC LC

    Format/Info : Advanced Audio Codec Low Complexity

    Codec ID : mp4a-40-2

    Duration : 46 min 38 s

    Bit rate mode : Variable

    Bit rate : 160 kb/s

    Channel(s) : 2 channels

    Channel layout : L R

    Sampling rate : 48.0 kHz

    Frame rate : 46.875 FPS (1024 SPF)

    Compression mode : Lossy

    Stream size : 53.2 MiB (6%)

    Title : Stereo / Stereo

    Language : English

    Text

    Language : English

    Default : Yes

    Forced : No


    More at ibit.to
    And ibit.uno
    And ibit.am
    And ibit.ws

    Reviews

    Comments

    Files

    Vikings S05E10 Moments of Vision 1080p 5.1 - 2.0 x264 Phun Psyz.mp4 832 MB

    Stream

    Downloading Seeding Vikings S05E10 Moments of Vision 1080p 5.1 - 2.0 x264 Phun Psyz from to 0 peers.
    of
    0 b/s / ↗0 b/s