• 0
  • 0
  • 571
  • done
Sponsored Downloadondemand_video
100%

Vikings: Full Moon(2018)

  • 5 7
  • Action & Adventure Drama
  • Bjorn returns to Kattegat to learn that an attack will take place during the next full moon. Ivar must decide if he can place his trust in a former enemy on the battlefield.

    expand_more
    English

    Description

    image

    image
    image
    image
    image

    Media Information


    ** Media Information **


    Code:

    __ General
    Format : Matroska

    Format version : Version 4 / Version 2

    File size : 524 MiB

    Duration : 44 min 49 s

    Overall bit rate : 1 635 kb/s

    Encoded date : UTC 2018-01-05 07:06:45

    Writing application : mkvmerge v15.0.0 ('Duel with the Devil') 64-bit

    Writing library : libebml v1.3.5 + libmatroska v1.4.5

    Writing frontend : StaxRip v1.7.0.0

    Video
    ID : 1

    Format : HEVC

    Format/Info : High Efficiency Video Coding

    Format profile : Main [email protected]@Main

    Codec ID : V_MPEGH/ISO/HEVC

    Duration : 44 min 49 s

    Bit rate : 1 184 kb/s

    Width : 1 920 pixels

    Height : 1 080 pixels

    Display aspect ratio : 16:9

    Frame rate mode : Constant

    Frame rate : 23.976 (24000/1001) FPS

    Color space : YUV

    Chroma subsampling : 4:2:0

    Bit depth : 10 bits

    Bits/(Pixel*Frame) : 0.024

    Stream size : 380 MiB (72%)

    Writing library : x265 2.6+24-69cfe46e8a3b:[Windows][GCC 7.2.0][64 bit] 10bit

    Encoding settings : cpuid=1173503 / frame-threads=3 / numa-pools=12 / wpp / no-pmode / no-pme / no-psnr / ssim / log-level=2 / input-csp=1 / input-res=1920x1080 / interlace=0 / total-frames=64476 / level-idc=0 / high-tier=1 / uhd-bd=0 / ref=3 / no-allow-non-conformance / no-repeat-headers / annexb / no-aud / no-hrd / info / hash=0 / no-temporal-layers / open-gop / min-keyint=23 / keyint=250 / gop-lookahead=0 / bframes=8 / b-adapt=2 / b-pyramid / bframe-bias=0 / rc-lookahead=50 / lookahead-slices=6 / scenecut=40 / radl=0 / no-intra-refresh / ctu=64 / min-cu-size=8 / no-rect / no-amp / max-tu-size=32 / tu-inter-depth=1 / tu-intra-depth=1 / limit-tu=0 / rdoq-level=0 / dynamic-rd=0.00 / no-ssim-rd / signhide / no-tskip / nr-intra=0 / nr-inter=0 / no-constrained-intra / no-strong-intra-smoothing / max-merge=3 / limit-refs=3 / no-limit-modes / me=3 / subme=3 / merange=57 / temporal-mvp / weightp / no-weightb / no-analyze-src-pics / deblock=0:0 / sao / no-sao-non-deblock / rd=3 / no-early-skip / no-rskip / no-fast-intra / no-tskip-fast / no-cu-lossless / no-b-intra / no-splitrd-skip / rdpenalty=0 / psy-rd=1.00 / psy-rdoq=0.00 / no-rd-refine / no-lossless / cbqpoffs=0 / crqpoffs=0 / rc=crf / crf=21.0 / qcomp=0.60 / qpstep=4 / stats-write=0 / stats-read=0 / ipratio=1.40 / pbratio=1.30 / aq-mode=3 / aq-strength=0.80 / cutree / zone-count=0 / no-strict-cbr / qg-size=32 / no-rc-grain / qpmax=69 / qpmin=0 / no-const-vbv / sar=0 / overscan=0 / videoformat=5 / range=0 / colorprim=2 / transfer=2 / colormatrix=2 / chromaloc=0 / display-window=0 / max-cll=0,0 / min-luma=0 / max-luma=1023 / log2-max-poc-lsb=8 / vui-timing-info / vui-hrd-info / slices=1 / no-opt-qp-pps / no-opt-ref-list-length-pps / no-multi-pass-opt-rps / scenecut-bias=0.05 / no-opt-cu-delta-qp / no-aq-motion / no-hdr / no-hdr-opt / no-dhdr10-opt / analysis-save=(null) / analysis-load=(null) / analysis-reuse-level=5 / scale-factor=0 / refine-intra=0 / refine-inter=0 / refine-mv=0 / no-limit-sao / ctu-info=0 / no-lowpass-dct / refine-mv-type=0 / copy-pic=1

    Default : Yes

    Forced : No

    Audio
    ID : 2

    Format : AAC

    Format/Info : Advanced Audio Codec

    Format profile : LC

    Codec ID : A_AAC

    Duration : 44 min 49 s

    Bit rate : 448 kb/s

    Channel(s) : 6 channels

    Channel positions : Front: L C R, Side: L R, LFE

    Sampling rate : 48.0 kHz

    Frame rate : 46.875 FPS (1024 spf)

    Compression mode : Lossy

    Stream size : 144 MiB (27%)

    Language : English

    Default : Yes

    Forced : Yes

    Subtitle #1
    ID : 3

    Format : UTF-8

    Codec ID : S_TEXT/UTF8

    Codec ID/Info : UTF-8 Plain Text

    Duration : 42 min 50 s

    Bit rate : 48 b/s

    Count of elements : 550

    Stream size : 15.4 KiB (0%)

    Language : English

    Default : No

    Forced : No

    Subtitle #2
    ID : 4

    Format : UTF-8

    Codec ID : S_TEXT/UTF8

    Codec ID/Info : UTF-8 Plain Text

    Duration : 43 min 51 s

    Bit rate : 51 b/s

    Count of elements : 628

    Stream size : 16.6 KiB (0%)

    Language : English

    Default : No

    Forced : No

    Menu
    00:00:00.000 : en:Opening Credits

    00:00:51.000 : en:Waiting for the full moon

    00:01:38.000 : en:Bjorn arrives home

    00:03:28.000 : en:The journey to find the land of Gods

    00:04:00.000 : en:Welcome home and fight the war

    00:08:59.000 : en:The new settlement

    00:10:56.000 : en:It's finished

    00:17:09.000 : en:A talk between mother and son

    00:19:02.000 : en:Fate or free will

    00:22:06.000 : en:The happiest man in Midgard

    00:23:51.000 : en:Waiting for a sign

    00:24:55.000 : en:King Harald shares the news

    00:25:28.000 : en:Bjorn has his moment with princess Snaefrid

    00:30:02.000 : en:A new kind of world

    00:31:58.000 : en:Reinforcement for the war

    00:32:17.000 : en:Alfred shares his thoughts at the monastery

    00:35:47.000 : en:The moon analogy

    00:39:13.000 : en:The strategy to defend Kattegat

    00:41:40.000 : en:Praying with the father

    00:43:24.000 : en:It's time

    00:43:48.000 : en:End Credits

    __


    ** Source Information **


    Code:

    __ Release:
    Amazon WEB-DL

    __


    More at ibit.to
    And ibit.uno
    And ibit.ws

    Reviews

    Comments

    1 year ago

    Thanks dude

    1 year ago

    Thanks

    1 year ago

    thank u . love this show.

    Files

    Vikings.S05E07.Full.Moon.1080p.10bit.AMZN.WEB-DL.AAC5.1.HEVC-Vyndros.mkv 524 MB
    Vikings S05E07 (1080p AMZN WEBDL x265 HEVC 10bit AAC 5.1 Vyndros) [UTR] -
    Vikings.S05E07.Full.Moon.1080p.10bit.AMZN.WEBDL.AAC5.1.HEVC-Vyndros.mkv 524 MB

    Stream

    Downloading Seeding Vikings S05E07 (1080p AMZN WEB-DL x265 HEVC 10bit AAC 5.1 Vyndros) [UTR] from to 0 peers.
    of
    0 b/s / ↗0 b/s