• 1
  • 1
  • 7
  • done
Sponsored Downloadondemand_video
  • Vikings S05E06 The Message 1080p 5.1 - 2.0 x264 Phun Psyz
  • 817 MB
  • PhunPsyz
  • Vikings S05E06 Message 1080p x264 Phun Psyz
  • English
  • Other
74%

Vikings: The Message(2017)

  • 5 6
  • Action & Adventure Drama
  • Lagertha is betrayed, and Bjorn must find a way to support the distraught queen. Floki and his settlers arrive in a new land, but it is far from what they expected.

    expand_more
    English

    Description

    www.imdb.com/title/tt5988206/?ref=ttepep6

    Lagertha is betrayed, and Bjorn must find a way to support the distraught queen; Floki and his settlers arrive in a new land, but it is far from what they expected.

    Source: Deflate

    image
    image
    image
    image
    image

    Format : MPEG-4

    Format profile : Base Media / Version 2

    Codec ID : mp42 (isom/iso2/avc1/mp41)

    File size : 817 MiB

    Duration : 46 min 55 s

    Overall bit rate mode : Variable

    Overall bit rate : 2 433 kb/s

    Video

    ID : 1

    Format : AVC

    Format/Info : Advanced Video Codec

    Format profile : [email protected]
    Format settings : CABAC / 1 Ref Frames

    Format settings, CABAC : Yes

    Format settings, ReFrames : 1 frame

    Codec ID : avc1

    Codec ID/Info : Advanced Video Coding

    Duration : 46 min 55 s

    Bit rate : 1 946 kb/s

    Width : 1 920 pixels

    Height : 1 080 pixels

    Display aspect ratio : 16:9

    Frame rate mode : Variable

    Frame rate : 23.976 (24000/1001) FPS

    Minimum frame rate : 23.974 FPS

    Maximum frame rate : 23.981 FPS

    Color space : YUV

    Chroma subsampling : 4:2:0

    Bit depth : 8 bits

    Scan type : Progressive

    Bits/(Pixel*Frame) : 0.039

    Stream size : 653 MiB (80%)

    Writing library : x264 core 155 r2901 7d0ff22

    Audio #1

    ID : 2

    Format : AC-3

    Format/Info : Audio Coding 3

    Commercial name : Dolby Digital

    Codec ID : ac-3

    Duration : 46 min 55 s

    Bit rate mode : Constant

    Bit rate : 320 kb/s

    Channel(s) : 6 channels

    Channel layout : L R C LFE Ls Rs

    Sampling rate : 48.0 kHz

    Frame rate : 31.250 FPS (1536 SPF)

    Bit depth : 16 bits

    Compression mode : Lossy

    Stream size : 107 MiB (13%)

    Title : Surround / Surround

    Language : English

    Audio #2

    ID : 3

    Format : AAC LC

    Format/Info : Advanced Audio Codec Low Complexity

    Codec ID : mp4a-40-2

    Duration : 46 min 55 s

    Bit rate mode : Variable

    Bit rate : 160 kb/s

    Channel(s) : 2 channels

    Channel layout : L R

    Sampling rate : 48.0 kHz

    Frame rate : 46.875 FPS (1024 SPF)

    Compression mode : Lossy

    Stream size : 53.8 MiB (7%)

    Title : Stereo / Stereo

    Language : English

    Text

    ID : 4

    Format : Timed Text

    Muxing mode : sbtl

    Codec ID : tx3g

    Duration : 45 min 53 s

    Bit rate mode : Variable

    Bit rate : 46 b/s

    Stream size : 15.6 KiB (0%)

    Language : English


    More at ibit.to
    And ibit.uno
    And ibit.ws

    Reviews

    Comments

    Files

    Vikings S05E06 The Message 1080p 5.1 - 2.0 x264 Phun Psyz.mp4 817 MB

    Stream

    Downloading Seeding Vikings S05E06 The Message 1080p 5.1 - 2.0 x264 Phun Psyz from to 0 peers.
    of
    0 b/s / ↗0 b/s