• 1
  • 0
  • 583
Sponsored Downloadondemand_video
100%

Vikings: Homeland(2017)

  • 5 3
  • Action & Adventure Drama
  • Celebrations are cut short in the aftermath of the battle at York. Ragnar Lothbrok's sons are pitted against each other as tensions reach an all-time high, and each is forced to choose a side.

    expand_more
    English

    Description

    image

    image
    image
    image
    image

    Media Information


    ** Media Information **


    Code:

    __ General
    Format : Matroska

    Format version : Version 4 / Version 2

    File size : 712 MiB

    Duration : 44 min 17 s

    Overall bit rate : 2 249 kb/s

    Encoded date : UTC 2017-12-08 18:20:10

    Writing application : mkvmerge v15.0.0 ('Duel with the Devil') 64-bit

    Writing library : libebml v1.3.5 + libmatroska v1.4.5

    Writing frontend : StaxRip v1.7.0.0

    Video
    ID : 1

    Format : HEVC

    Format/Info : High Efficiency Video Coding

    Format profile : Main [email protected]@Main

    Codec ID : V_MPEGH/ISO/HEVC

    Duration : 44 min 17 s

    Bit rate : 1 798 kb/s

    Width : 1 920 pixels

    Height : 1 080 pixels

    Display aspect ratio : 16:9

    Frame rate mode : Constant

    Frame rate : 23.976 (24000/1001) FPS

    Color space : YUV

    Chroma subsampling : 4:2:0

    Bit depth : 10 bits

    Bits/(Pixel*Frame) : 0.036

    Stream size : 570 MiB (80%)

    Writing library : x265 2.6+2-32e6f04b8713:[Windows][GCC 7.2.0][64 bit] 10bit

    Encoding settings : cpuid=1173503 / frame-threads=3 / numa-pools=12 / wpp / no-pmode / no-pme / no-psnr / ssim / log-level=2 / input-csp=1 / input-res=1920x1080 / interlace=0 / total-frames=63718 / level-idc=0 / high-tier=1 / uhd-bd=0 / ref=3 / no-allow-non-conformance / no-repeat-headers / annexb / no-aud / no-hrd / info / hash=0 / no-temporal-layers / open-gop / min-keyint=23 / keyint=250 / bframes=8 / b-adapt=2 / b-pyramid / bframe-bias=0 / rc-lookahead=50 / lookahead-slices=6 / scenecut=40 / no-intra-refresh / ctu=64 / min-cu-size=8 / no-rect / no-amp / max-tu-size=32 / tu-inter-depth=1 / tu-intra-depth=1 / limit-tu=0 / rdoq-level=0 / dynamic-rd=0.00 / no-ssim-rd / signhide / no-tskip / nr-intra=0 / nr-inter=0 / no-constrained-intra / no-strong-intra-smoothing / max-merge=3 / limit-refs=3 / no-limit-modes / me=3 / subme=3 / merange=57 / temporal-mvp / weightp / no-weightb / no-analyze-src-pics / deblock=0:0 / sao / no-sao-non-deblock / rd=3 / no-early-skip / no-rskip / no-fast-intra / no-tskip-fast / no-cu-lossless / no-b-intra / no-splitrd-skip / rdpenalty=0 / psy-rd=1.00 / psy-rdoq=0.00 / no-rd-refine / analysis-reuse-mode=0 / no-lossless / cbqpoffs=0 / crqpoffs=0 / rc=crf / crf=21.0 / qcomp=0.60 / qpstep=4 / stats-write=0 / stats-read=0 / ipratio=1.40 / pbratio=1.30 / aq-mode=3 / aq-strength=0.80 / cutree / zone-count=0 / no-strict-cbr / qg-size=32 / no-rc-grain / qpmax=69 / qpmin=0 / no-const-vbv / sar=0 / overscan=0 / videoformat=5 / range=0 / colorprim=2 / transfer=2 / colormatrix=2 / chromaloc=0 / display-window=0 / max-cll=0,0 / min-luma=0 / max-luma=1023 / log2-max-poc-lsb=8 / vui-timing-info / vui-hrd-info / slices=1 / no-opt-qp-pps / no-opt-ref-list-length-pps / no-multi-pass-opt-rps / scenecut-bias=0.05 / no-opt-cu-delta-qp / no-aq-motion / no-hdr / no-hdr-opt / no-dhdr10-opt / analysis-reuse-level=5 / scale-factor=0 / refine-intra=0 / refine-inter=0 / refine-mv=0 / no-limit-sao / ctu-info=0 / no-lowpass-dct / refine-mv-type=0 / copy-pic=1

    Default : Yes

    Forced : No

    Audio
    ID : 2

    Format : AAC

    Format/Info : Advanced Audio Codec

    Format profile : LC

    Codec ID : A_AAC

    Duration : 44 min 17 s

    Bit rate : 448 kb/s

    Channel(s) : 6 channels

    Channel positions : Front: L C R, Side: L R, LFE

    Sampling rate : 48.0 kHz

    Frame rate : 46.875 FPS (1024 spf)

    Compression mode : Lossy

    Stream size : 142 MiB (20%)

    Language : English

    Default : Yes

    Forced : Yes

    Subtitle
    ID : 3

    Format : UTF-8

    Codec ID : S_TEXT/UTF8

    Codec ID/Info : UTF-8 Plain Text

    Duration : 43 min 16 s

    Bit rate : 31 b/s

    Count of elements : 455

    Stream size : 10.0 KiB (0%)

    Language : English

    Default : No

    Forced : No

    Menu
    00:00:00.000 : en:Opening Credits

    00:00:50.000 : en:Among the Gods

    00:02:30.000 : en:The King is returned

    00:05:04.000 : en:A sacrifice for the Gods

    00:08:43.000 : en:The right time to attack

    00:09:27.000 : en:The reasons of Halfdan

    00:11:02.000 : en:Time to battle

    00:16:15.000 : en:Come out and fight

    00:22:53.000 : en:Different interests

    00:24:23.000 : en:Not an easy choice for Astrid

    00:26:28.000 : en:Sneaking out

    00:27:04.000 : en:It's not that easy

    00:29:15.000 : en:Ubbe and Hvitserk try to make peace

    00:37:36.000 : en:Finding the answers

    00:41:26.000 : en:Everyone is with me

    00:43:16.000 : en:End Credits

    __


    ** Source Information **


    Code:

    __ Release:
    Amazon WEB-DL

    __


    More at ibit.to
    And ibit.uno
    And ibit.ws

    Reviews

    Comments

    2 years ago

    Busy boy today!! Thanks for sharing.

    2 years ago

    Thanks!

    2 years ago

    Yep, got lazy and only found time to release them all today in a big batch.

    Files

    Vikings.S05E03.Homeland.1080p.10bit.AMZN.WEB-DL.AAC5.1.HEVC-Vyndros.mkv 712 MB
    Vikings S05E03 (1080p AMZN WEBDL x265 HEVC 10bit AAC 5.1 Vyndros) [UTR] -
    Vikings.S05E03.Homeland.1080p.10bit.AMZN.WEBDL.AAC5.1.HEVC-Vyndros.mkv 712 MB

    Stream

    Downloading Seeding Vikings S05E03 (1080p AMZN WEB-DL x265 HEVC 10bit AAC 5.1 Vyndros) [UTR] from to 0 peers.
    of
    0 b/s / ↗0 b/s