• 1
  • 0
  • done
Anonymous Downloadondemand_video
  • Vida.S01.720p.WEB-DL.AMS
  • 6.0 GB
  • AlexMild
  • Vida
  • Зарубежные сери
Warning! Use a VPN When Downloading Torrents!
Your IP Address is ,
Your Internet Provider can see when you download torrents! Hide your IP ADDRESS with a VPN
We strongly recommend Trust.Zone VPN to hide your torrenting. It's FREE!
DOWNLOAD VPN
58%

Vida: Vida(2018)

  • Drama
  • Two Mexican-American sisters from the Eastside of Los Angeles who couldn't be more different or distanced from each other are forced to return to their old neighborhood, where they are confronted by the past and surprising truth about their mother’s identity.

    expand_more
    English

    Description

    image

    Жизнь / Vida

    Год выпуска: 2018

    Страна: США

    Жанр: ужасы, фантастика, боевик, триллер, драма

    Продолжительность: 00:35:00

    Перевод : Профессиональный многоголосый закадровый

    (AMS)

    Режиссер: Эрнест Р. Дикерсон, Энтони Хемингуэй, Кларк Джонсон

    В ролях: May Celestine, Tonatiuh Elizarraraz, Мелисса Баррера, Мишель Агуар, Карен Анзоатеги, Челси Рендон, Карлос Миранда, Мария-Елена Лаас, Аалайя Лопес, Луис Бордонада и другие

    Описание:

    Эмма и Лин - главные героини этого сериала. Они живут в Соединенных Штатах Америки, но родом из Мексики. Небольшой район города Ангелов Истсайд стал для них родным. Девушки все время проводят в этих окрестностях, пытаясь наладить личную жизнь и профессиональные дела. Неожиданные драматические события, связанные с их прошлым и семьей, заставляют главных героинь иначе взглянуть на реальность. Как оказалось, их мать хранит множество тайн, о которых сестрам лучше было бы не знать. То, что героини узнают о своей семье, навсегда меняет их видение происходящего. Мир уже никогда не будет прежним, а жизнь избрала новое течение.

    Ccылка на предыдущие и альтернативные раздачи

    /

    Сэмпл

    Качество : WEB-DL 720p

    Контейнер : MKV

    Видео : MPEG-4 AVC, 1280x720, 16:9, ~2674 Кбит/с, 23.976 fps, ~0.121 bit/pixel

    Аудио 1 : Русский, AC3, 48.0 KHz, 6 channels, 640 Kbps

    Аудио 2 : Английский, AC3, 48.0 KHz, 6 channels, 640 Kbps

    Субтитры : английские

    Реклама: Присутствует звуковая (два раза: в начале и конце по 12 сек)

    MediaInfo

    General
    Unique ID : 40332465822866566118830929873424462427 (0x1E57C017FB2CD1CE2F0689FC7291B25B)
    Complete name : /Vida.S01.720p.WEB-DL.AMS/Vida.S01E01.720p.WEB-DL.AMS.mkv
    Format : Matroska
    Format version : Version 4 / Version 2
    File size : 1 011 MiB
    Duration : 35mn 43s
    Overall bit rate mode : Variable
    Overall bit rate : 3 957 Kbps
    Encoded date : UTC 2018-01-01 23:59:59
    Writing application : mkvmerge v8.2.0 ('World of Adventure') 64bit
    Writing library : libebml v1.3.1 + libmatroska v1.4.2

    Video
    ID : 1
    Format : AVC
    Format/Info : Advanced Video Codec
    Format profile : [email protected]
    Format settings, CABAC : Yes
    Format settings, ReFrames : 5 frames
    Codec ID : V_MPEG4/ISO/AVC
    Duration : 35mn 43s
    Bit rate mode : Variable
    Bit rate : 2 674 Kbps
    Maximum bit rate : 4 500 Kbps
    Width : 1 280 pixels
    Height : 720 pixels
    Display aspect ratio : 16:9
    Frame rate mode : Constant
    Frame rate : 23.976 (24000/1001) fps
    Color space : YUV
    Chroma subsampling : 4:2:0
    Bit depth : 8 bits
    Scan type : Progressive
    Bits/(Pixel*Frame) : 0.121
    Stream size : 683 MiB (68%)
    Default : Yes
    Forced : No
    Color range : Limited
    Color primaries : BT.709
    Transfer characteristics : BT.709
    Matrix coefficients : BT.709

    Audio #1
    ID : 2
    Format : AC-3
    Format/Info : Audio Coding 3
    Mode extension : CM (complete main)
    Format settings, Endianness : Big
    Codec ID : A_AC3
    Duration : 35mn 43s
    Bit rate mode : Constant
    Bit rate : 640 Kbps
    Channel(s) : 6 channels
    Channel positions : Front: L C R, Side: L R, LFE
    Sampling rate : 48.0 KHz
    Frame rate : 31.250 fps (1536 spf)
    Compression mode : Lossy
    Stream size : 164 MiB (16%)
    Language : Russian
    Default : Yes
    Forced : No

    Audio #2
    ID : 3
    Format : E-AC-3
    Format/Info : Audio Coding 3
    Format settings, Endianness : Big
    Codec ID : A_EAC3
    Duration : 35mn 43s
    Bit rate mode : Constant
    Bit rate : 640 Kbps
    Channel(s) : 6 channels
    Channel positions : Front: L C R, Side: L R, LFE
    Sampling rate : 48.0 KHz
    Frame rate : 187.500 fps (256 spf)
    Compression mode : Lossy
    Stream size : 164 MiB (16%)
    Language : English
    Default : No
    Forced : No

    Text #1
    ID : 4
    Format : UTF-8
    Codec ID : S_TEXT/UTF8
    Codec ID/Info : UTF-8 Plain Text
    Duration : 33mn 1s
    Bit rate : 66 bps
    Count of elements : 557
    Stream size : 16.0 KiB (0%)
    Language : English
    Default : No
    Forced : No

    Text #2
    ID : 5
    Format : UTF-8
    Codec ID : S_TEXT/UTF8
    Codec ID/Info : UTF-8 Plain Text
    Duration : 33mn 1s
    Bit rate : 71 bps
    Count of elements : 611
    Stream size : 17.4 KiB (0%)
    Title : SDH
    Language : English
    Default : No
    Forced : No

    Скриншоты

    image image
    image image


    More at ibit.to
    And ibit.uno
    And ibit.ws

    Reviews

    Comments

    Files

    Vida.S01E01.720p.WEB-DL.AMS.mkv 1.0 GB
    Vida.S01E02.720p.WEB-DL.AMS.mkv 911 MB
    Vida.S01E03.720p.WEB-DL.AMS.mkv 1.0 GB
    Vida.S01E04.720p.WEB-DL.AMS.mkv 1.0 GB
    Vida.S01E05.720p.WEB-DL.AMS.mkv 1.0 GB
    Vida.S01E06.720p.WEB-DL.AMS.mkv 1.1 GB

    Stream

    Downloading Seeding Vida.S01.720p.WEB-DL.AMS from to 0 peers.
    of
    0 b/s / ↗0 b/s