• 0
  • 0
  • done
Sponsored Downloadondemand_video
  • Veteran.2014.HDTVRip.(720p).MediaClub
  • 6.7 GB
  • intellect
  • Veteran 2014 HDTVRip 720p MediaClub
  • Русские сериалы

Description

Ветеран

image


Год выпуска: 2015

Производство: Россия, Триикс Медиа

Жанр: Боевик

Продолжительность: ~00:45:00 / Серия

Субтитры: Нет


Режиссёр: Денис Скворцов

В ролях: Андрей Чубченко, Виталий Пичик, Григорий Зельцер, Борис Бедросов, Варвара Бородина, Волли Хаммер, Алексей Шевченков, Александр Самохин, Михаил Ложкин


Описание: Новиков считает, что его жизнь не удалась. Бывший военный, состоящий на специальном учете, одинокий… Молодой в сущности парень – он никому не нужен. Он получает маленькую пенсию, иногда разгружает вагоны. На жизнь хватает. А еще Новиков регулярно ходит на обследования в районную поликлинику. Он состоит на учете у психиатра. Ему положены успокаивающие таблетки и регулярный осмотр.


Релиз: Rip by Nikolspup от MediaClub
image image

Все раздачи сериала
Семпл


Качество: HDTVRip 720p

Формат: MKV

Видео кодек: AVC

Аудио кодек: AC3

Видео: MPEG-4 AVC, ~ 4900 Кбит/с, 1280x720, 25 кадр/с, 0.207 Бит/(Пиксели*Кадры)

Аудио: AC3, 2 ch, 192 Кбит/с, 48,0 КГц

MI

Общее
Уникальный идентификатор : 224346474415488905430961483585492188809 (0xA8C78F2E3FAC43A1A3F95772C0397E89)
Полное имя : F:Фильмы торрентыVeteran.2015.HDTVRip.(720p).MediaClubVeteran.(01.seriya.iz.04).2014.HDTVRip.(720p).MediaClub.mkv
Формат : Matroska
Версия формата : Version 2
Размер файла : 1,55 Гбайт
Продолжительность : 44 м.
Общий поток : 4958 Кбит/сек
Дата кодирования : UTC 2016-02-01 05:57:28
Программа кодирования : mkvmerge v7.8.0 ('River Man') 32bit built on Apr 3 2015 12:11:22
Библиотека кодирования : libebml v1.3.1 + libmatroska v1.4.2

Видео
Идентификатор : 1
Формат : AVC
Формат/Информация : Advanced Video Codec
Профиль формата : [email protected]
Параметр CABAC формата : Да
Параметр ReFrames формата : 9 кадров
Идентификатор кодека : VMPEG4/ISO/AVC
Продолжительность : 44 м.
Битрейт : 4770 Кбит/сек
Ширина : 1280 пикселей
Высота : 720 пикселей
Соотношение сторон : 16:9
Режим частоты кадров : Постоянный
Частота кадров : 25,000 кадров/сек
Цветовое пространство : YUV
Субдискретизация насыщенности : 4:2:0
Битовая глубина : 8 бит
Тип развёртки : Прогрессивная
Бит/(Пиксели*Кадры) : 0.207
Размер потока : 1,46 Гбайт (94%)
Библиотека кодирования : x264 core 146 r2538 121396c
Настройки программы : cabac=1 / ref=9 / deblock=1:-3:-3 / analyse=0x3:0x113 / me=umh / subme=11 / psy=1 / psy
rd=1.00:0.20 / mixedref=1 / merange=32 / chromame=1 / trellis=2 / 8x8dct=1 / cqm=0 / deadzone=21,11 / fastpskip=0 / chromaqpoffset=-3 / threads=12 / lookaheadthreads=3 / slicedthreads=0 / nr=0 / decimate=0 / interlaced=0 / bluraycompat=0 / constrainedintra=0 / bframes=12 / bpyramid=2 / badapt=2 / bbias=0 / direct=3 / weightb=1 / opengop=0 / weightp=2 / keyint=250 / keyintmin=25 / scenecut=40 / intrarefresh=0 / rclookahead=60 / rc=2pass / mbtree=0 / bitrate=4770 / ratetol=1.0 / qcomp=0.60 / qpmin=0 / qpmax=69 / qpstep=4 / cplxblur=20.0 / qblur=0.5 / vbvmaxrate=14000 / vbvbufsize=14000 / nalhrd=none / filler=0 / ipratio=1.40 / pbratio=1.30 / aq=3:0.80
Default : Да
Forced : Нет
Основные цвета : BT.709
Характеристики трансфера : BT.709
Коэффициенты матрицы : BT.709

Аудио
Идентификатор : 2
Формат : AC-3
Формат/Информация : Audio Coding 3
Расширение режима : CM (complete main)
Параметр Endianness формата : Big
Идентификатор кодека : A_AC3
Продолжительность : 44 м.
Вид битрейта : Постоянный
Битрейт : 192 Кбит/сек
Каналы : 2 канала
Расположение каналов : Front: L R
Частота : 48,0 КГц
Битовая глубина : 16 бит
Метод сжатия : С потерями
Размер потока : 61,6 Мбайт (4%)
Default : Да
Forced : Нет

Скриншоты

image image image image

От меня только оформление, раздает Nikolspup


More at ibit.to
And ibit.uno
And ibit.ws

Comments

Files

Veteran.2014.HDTVRip.(720p).MediaClubVeteran.(04.seriya.iz.04).2014.HDTVRip.(720p).MediaClub.mkv 1.7 GB
Veteran.2014.HDTVRip.(720p).MediaClubVeteran.(02.seriya.iz.04).2014.HDTVRip.(720p).MediaClub.mkv 1.7 GB
Veteran.2014.HDTVRip.(720p).MediaClubVeteran.(01.seriya.iz.04).2014.HDTVRip.(720p).MediaClub.mkv 1.7 GB
Veteran.2014.HDTVRip.(720p).MediaClubVeteran.(03.seriya.iz.04).2014.HDTVRip.(720p).MediaClub.mkv 1.7 GB

Stream

Downloading Seeding Veteran.2014.HDTVRip.(720p).MediaClub from to 0 peers.
of
0 b/s / ↗0 b/s