• 1
  • 0
  • done
Sponsored Downloadondemand_video
  • Van_Gog_2017_HDRip_iT_by_Dalemake.avi
  • 1.6 GB
  • dalemake
  • Van Gog 2017 HDRip Dalemake avi
  • Арт-хаус и автор
82%

Loving Vincent (2017)

  • Animation Drama Mystery
  • The film brings the paintings of Vincent van Gogh to life to tell his remarkable story. Every one of the 65,000 frames of the film is an oil-painting hand-painted by 125 professional oil-painters who travelled from all across the world to the Loving Vincent studios in Poland and Greece to be a part of the production. As remarkable as Vincent’s brilliant paintings are his passionate and ill-fated life and mysterious death.

    expand_more
    English
  • $5,500,000
  • Description

    Ван Гог. С любовью, Винсент / Loving Vincent


    image

    Год выпуска : 2017

    Выпущено : Великобритания, Польша / BreakThru Productions

    Жанр : драма, криминал, биография, мультфильм

    Продолжительность : 01:34:43

    Перевод : Профессиональный (полное дублирование)

    Субтитры : нет


    Режиссер :
    Дорота Кобела / Dorota Kobiela, Хью Уэлшман / Hugh Welchman


    В ролях :
    Дуглас Бут, Сирша Ронан, Джером Флинн, Эйдан Тернер, Хелен МакКрори, Холли Эрл, Крис О’Дауд, Элинор Томлинсон, Робин Ходжес, Роберт Гулачик


    Описание :

    Фильм о жизни и загадочной смерти Винсента Ван Гога.


    Релиз групп

    image | image | IMDB | КиноПоиск | Сэмпл |


    Качество :

    HDRip

    [Loving.Vincent.2017.LIMITED.1080p.BluRay.x264-GECKOS]

    Формат : AVI

    Видео : 704x512 (1.38:1), 23.976 fps, XviD build 67 ~1807 kbps avg, 0.21 bit/pixel

    Аудио : 48 kHz, AC3 Dolby Digital, 3/2 (L,C,R,l,r) + LFE ch, ~384.00 kbps avg -

    iTunes Russia


    Скриншоты

    image


    imageimageimageimage

    MediaInfo

    Код:

    General
    Complete name               : D:VanGog2017HDRipiTbyDalemake.avi
    Format                      : AVI
    Format/Info                 : Audio Video Interleave
    File size                   : 1.46 GiB
    Duration                    : 1 h 34 min
    Overall bit rate            : 2 201 kb/s
    Writing application         : VirtualDubMod 1.5.10.3 | www.virtualdub-fr.org || (build 2550/release)
    Writing library             : VirtualDubMod build 2550/release

    Video
    ID                          : 0
    Format                      : MPEG-4 Visual
    Format profile              : Advanced Simple@L5
    Format settings             : BVOP1 / Custom Matrix
    Format settings, BVOP       : 1
    Format settings, QPel       : No
    Format settings, GMC        : No warppoints
    Format settings, Matrix     : Custom
    Codec ID                    : XVID
    Codec ID/Hint               : XviD
    Duration                    : 1 h 34 min
    Bit rate                    : 1 808 kb/s
    Width                       : 704 pixels
    Height                      : 512 pixels
    Display aspect ratio        : 1.375
    Frame rate                  : 23.976 (24000/1001) FPS
    Color space                 : YUV
    Chroma subsampling          : 4:2:0
    Bit depth                   : 8 bits
    Scan type                   : Progressive
    Compression mode            : Lossy
    Bits/(Pixel*Frame)          : 0.209
    Stream size                 : 1.20 GiB (82%)
    Writing library             : XviD 67

    Audio
    ID                          : 1
    Format                      : AC-3
    Format/Info                 : Audio Coding 3
    Codec ID                    : 2000
    Duration                    : 1 h 34 min
    Bit rate mode               : Constant
    Bit rate                    : 384 kb/s
    Channel(s)                  : 6 channels
    Channel positions           : Front: L C R, Side: L R, LFE
    Sampling rate               : 48.0 kHz
    Frame rate                  : 31.250 FPS (1536 SPF)
    Bit depth                   : 16 bits
    Compression mode            : Lossy
    Stream size                 : 260 MiB (17%)
    Alignment                   : Split accross interleaves
    Interleave, duration        : 42  ms (1.00 video frame)
    Interleave, preload duratio : 500  ms



    More at ibit.to
    And ibit.uno
    And ibit.ws

    Reviews

    Comments

    Files

    Van_Gog_2017_HDRip_iT_by_Dalemake.avi 1.6 GB

    Stream

    Downloading Seeding Van_Gog_2017_HDRip_iT_by_Dalemake.avi from to 0 peers.
    of
    0 b/s / ↗0 b/s