• 3
  • 1
  • 4,816
Anonymous Downloadondemand_video
  • Uri.The.Surgical.Strike.2018.1080p.WEBRip.Hindi.AAC.MoviesMB
  • 1.8 GB
  • abuhamza420
  • Uri Surgical Strike 2018 1080p WEBRip Hindi AAC MoviesMB
  • Hindi
  • Dubs/Dual Audio
Warning! Use a VPN When Downloading Torrents!
Your IP Address is ,
Your Internet Provider can see when you download torrents! Hide your IP ADDRESS with a VPN
We strongly recommend Trust.Zone VPN to hide your torrenting. It's FREE!
DOWNLOAD VPN
75%

Uri: The Surgical Strike (2019)

  • Action Drama
  • Following the roguish terrorist attacks at Uri Army Base camp in Kashmir, India takes the fight to the enemy, in its most successful covert operation till date with one and only one objective of avenging their fallen heroes.

    expand_more
    Hindi

    Description

    image

    Uri.The.Surgical.Strike.2018.1080p.WEBRip.Hindi.AAC.MoviesMB

    MoviesMB

    Downloadhub.Icu

    Buy PowerFull VPS And RDP From RDPArena.com

    Use Coupon EXTRADESI get 30% Discount on All RDP and VPS Plans

    image

    Video

    ID : 1

    Format : AVC

    Format/Info : Advanced Video Codec

    Format profile : [email protected]
    Format settings : CABAC / 5 Ref Frames

    Format settings, CABAC : Yes

    Format settings, RefFrames : 5 frames

    Codec ID : V_MPEG4/ISO/AVC

    Duration : 2 h 18 min

    Bit rate : 1 699 kb/s

    Width : 1 920 pixels

    Height : 800 pixels

    Display aspect ratio : 2.40:1

    Frame rate mode : Constant

    Frame rate : 24.000 FPS

    Color space : YUV

    Chroma subsampling : 4:2:0

    Bit depth : 8 bits

    Scan type : Progressive

    Bits/(Pixel*Frame) : 0.046

    Stream size : 1.64 GiB (93%)

    Title : MoviesMB

    Writing library : x264 core 157 r2935 545de2f

    Language : English

    Default : Yes

    Forced : No

    Color range : Limited

    Color primaries : Generic film

    Transfer characteristics : BT.709

    Matrix coefficients : BT.709

    Audio

    ID : 2

    Format : AAC

    Format/Info : Advanced Audio Codec

    Format profile : LC

    Codec ID : A_AAC-2

    Duration : 2 h 18 min

    Bit rate : 128 kb/s

    Channel(s) : 2 channels

    Channel positions : Front: L R

    Sampling rate : 48.0 kHz

    Frame rate : 46.875 FPS (1024 SPF)

    Compression mode : Lossy

    Delay relative to video : 9 ms

    Stream size : 127 MiB (7%)

    Title : MoviesMB

    Default : Yes

    Forced : No

    image
    image
    image
    image
    image
    image
    image
    image
    image

    image


    More at ibit.to
    And ibit.uno
    And ibit.ws

    Reviews

    Comments

    Files

    MoviesMB.com -Uri.The.Surgical.Strike.2018.1080p.WEBRip.Hindi.AAC.MoviesMB.mkv 1.8 GB
    Sample-MoviesMB.com -Uri.The.Surgical.Strike.2018.1080p.WEBRip.Hindi.AAC.MoviesMB (1).mkv 16 MB
    Buy RDP - RDPArena.com.url 100 B
    Downloadhub.icu Free 300MB Movies Download.url 100 B
    Download Latest Movies From MoviesMb.Com.url 100 B
    MoviesMB.com Uri.The.Surgical.Strike.2018.1080p.WEBRip.Hindi.AAC.MoviesMB.mkv 1.8 GB
    SampleMoviesMB.com -Uri.The.Surgical.Strike.2018.1080p.WEBRip.Hindi.AAC.MoviesMB (1).mkv 16 MB
    Buy RDP RDPArena.com.url 121 B

    Stream

    Downloading Seeding Uri.The.Surgical.Strike.2018.1080p.WEBRip.Hindi.AAC.MoviesMB from to 0 peers.
    of
    0 b/s / ↗0 b/s