• -
  • -
  • done
Download
  • Universal Soldier (Роланд Эммерих
  • 55 GB
  • dfhrtfgj
  • Universal Soldier
  • Главная

Description

Универсальный солдат / Universal Soldier

image

Страна : США

Студия : StudioCanal, Carolco Pictures, IndieProd Company Productions

Жанр : боевик, фантастика

Год выпуска : 1992

Продолжительность : 01:42

Перевод 1 : Профессиональный (полное дублирование)

Хлопушка

Перевод 2 : Профессиональный (многоголосый закадровый)

Лазер Видео

Перевод 3 : Профессиональный (многоголосый закадровый)

СТС

Перевод 4 : Профессиональный (многоголосый закадровый)

ТВ3

Перевод 5 : Профессиональный (двухголосый закадровый)

Twister

Перевод 6 : Авторский (одноголосый закадровый)

А. Гаврилов

Перевод 7 : Авторский (одноголосый закадровый)

В. Горчаков

Перевод 8 : Авторский (одноголосый закадровый)

Ю. Живов

Перевод 9 : Профессиональный (полное дублирование)

НЛО TV

Перевод 10 : Профессиональный (двухголосый закадровый)

1+1

Перевод 11 : Профессиональный (двухголосый закадровый)

Saryarqa

Субтитры : русские (full x 2), английские (full, SDH)

Оригинальная аудиодорожка : английский

Режиссер : Роланд Эммерих / Roland Emmerich

В ролях : Жан-Клод Ван Дамм, Дольф Лундгрен, Элли Уокер, Эд О’Росс, Джерри Орбак, Леон Риппи, Тико Уэллс, Ральф Мёллер, Роберт Требор, Джин Дэвис

Описание : Элитный анти-террористический отряд солдат демонстрирует поразительные физические возможности. Репортер Виктория следует за ними и раскрывает часть их секрета. Когда один из членов отряда убивает её оператора, она пытается сбежать. К Люку, одному из солдат, начинает возвращаться память и он решает ей помочь, а остальная часть отряда следует за ними, чтобы защитить свои секреты.

Доп. информация : Звуковые дорожки 1-10 и главы отсюда - // thx. SabianS и остальным по цепочке
Звуковая дорожка казахский отсюда - // thx. Pеrfесt_03

Сэмпл : http://sendfile.su/1646706

Тип релиза : UHD BDRemux 2160p HDR

Контейнер : MKV

Видео : HEVC (Main [email protected]@High), 64,0 Mbps, 3840x2160 (16:9), 24.000 fps, 10 bit, BT.2020, HDR10

Аудио 1 : русский, 48.0 KHz, AC3, 2 ch, 192 Kbps - |

Хлопушка

Аудио 2 : русский, 48.0 KHz, AC3, 2 ch, 192 Kbps - |

Лазер Видео

Аудио 3 : русский, 48.0 KHz, AC3, 2 ch, 192 Kbps - |

СТС

Аудио 4 : русский, 48.0 KHz, AC3, 2 ch, 192 Kbps - |

ТВ3

Аудио 5 : русский, 48.0 KHz, AC3, 6 ch, 384 Kbps - |

Twister

Аудио 6 : русский, 48.0 KHz, AC3, 6 ch, 384 Kbps - |

А. Гаврилов

Аудио 7 : русский, 48.0 KHz, DTS, 6 ch, 1509 Kbps - |

В. Горчаков

Аудио 8 : русский, 48.0 KHz, AC3, 6 ch, 640 Kbps - |

Ю. Живов

Аудио 9 : украинский, 48.0 KHz, AC3, 2 ch, 192 Kbps - |

НЛО TV

Аудио 10 : украинский, 48.0 KHz, AC3, 6 ch, 448 Kbps - |

1+1

Аудио 11 : казахский, 48.0 KHz, AC3, 2 ch, 192 Kbps - |

Saryarqa

Аудио 12 : English, 48.0 KHz, DTS-HD Master Audio, 6 ch, ~4 287 Kbps - |

Original

Аудио 13 : English, 48.0 KHz, DTS-HD Master Audio, 2 ch, ~1 616 Kbps - |

Original

Аудио 14 : English, 48.0 KHz, DTS-HD Master Audio, 2 ch, ~1 508 Kbps - |

Commentary

Формат субтитров : softsub (SRT)

MediaInfo

`
Общее
Уникальный идентификатор : 146030789100350656723780203042364114750 (0x6DDC81C7AD6E0DAB919E08E4C036C73E)
Полное имя : D:tempUniversal.Soldier.1992.2160p.UHD.HDR.BluRay.REMUX.HEVCUniversal.Soldier.1992.2160p.UHD.HDR.BluRay.REMUX.HEVC.8xRus.2xUkr.1xKaz.mkv
Формат : Matroska
Версия формата : Version 4
Размер файла : 54,8 Гбайт
Продолжительность : 1 ч. 43 м.
Режим общего битрейта : Переменный
Общий поток : 75,9 Мбит/сек
Название фильма : Universal Soldier (1992) [2160p, HDR]
Дата кодирования : UTC 2022-05-11 18:41:47
Программа кодирования : mkvmerge v67.0.0 ('Under Stars') 64-bit
Библиотека кодирования : libebml v1.4.2 + libmatroska v1.6.4
Обложка : Yes
Attachments : smallcover.jpg / smallcoverland.jpg / cover.jpg / coverland.jpg

Видео
Идентификатор : 1
Формат : HEVC
Формат/Информация : High Efficiency Video Coding
Профиль формата : Main [email protected]@High
HDR format : SMPTE ST 2086, HDR10 compatible
Идентификатор кодека : V_MPEGH/ISO/HEVC
Продолжительность : 1 ч. 43 м.
Битрейт : 64,0 Мбит/сек
Ширина : 3 840 пикселей
Высота : 2 160 пикселей
Соотношение сторон : 16:9
Режим частоты кадров : Постоянный
Частота кадров : 24,000 кадра/сек
Цветовое пространство : YUV
Субдискретизация насыщенности : 4:2:0 (Type 2)
Битовая глубина : 10 бит
Бит/(Пиксели*Кадры) : 0.321
Размер потока : 46,2 Гбайт (84%)
Заголовок : Universal Soldier (1992) [2160p HDR]
Язык : English
Default : Да
Forced : Нет
Цветовой диапазон : Limited
Основные цвета : BT.2020
Характеристики трансфера : PQ
Коэффициенты матрицы : BT.2020 non-constant
Mastering display color primaries : Display P3
Mastering display luminance : min: 0.0001 cd/m2, max: 1000 cd/m2
Maximum Content Light Level : 818 cd/m2
Maximum Frame-Average Light Level : 554 cd/m2

Аудио #1
Идентификатор : 2
Формат : AC-3
Формат/Информация : Audio Coding 3
Коммерческое название : Dolby Digital
Настройки формата : Dolby Surround
Идентификатор кодека : A_AC3
Продолжительность : 1 ч. 43 м.
Вид битрейта : Постоянный
Битрейт : 192 Кбит/сек
Каналы : 2 канала
Channel layout : L R
Частота : 48,0 КГц
Частота кадров : 31,250 кадров/сек (1536 SPF)
Метод сжатия : С потерями
Размер потока : 142 Мбайт (0%)
Заголовок : Dub Khlopushka
Язык : Russian
Service kind : Complete Main
Default : Да
Forced : Нет

Аудио #2
Идентификатор : 3
Формат : AC-3
Формат/Информация : Audio Coding 3
Коммерческое название : Dolby Digital
Настройки формата : Dolby Surround
Идентификатор кодека : A_AC3
Продолжительность : 1 ч. 43 м.
Вид битрейта : Постоянный
Битрейт : 192 Кбит/сек
Каналы : 2 канала
Channel layout : L R
Частота : 48,0 КГц
Частота кадров : 31,250 кадров/сек (1536 SPF)
Метод сжатия : С потерями
Размер потока : 142 Мбайт (0%)
Заголовок : MVO Laser Video
Язык : Russian
Service kind : Complete Main
Default : Нет
Forced : Нет

Аудио #3
Идентификатор : 4
Формат : AC-3
Формат/Информация : Audio Coding 3
Коммерческое название : Dolby Digital
Настройки формата : Dolby Surround
Идентификатор кодека : A_AC3
Продолжительность : 1 ч. 43 м.
Вид битрейта : Постоянный
Битрейт : 192 Кбит/сек
Каналы : 2 канала
Channel layout : L R
Частота : 48,0 КГц
Частота кадров : 31,250 кадров/сек (1536 SPF)
Метод сжатия : С потерями
Размер потока : 142 Мбайт (0%)
Заголовок : MVO STS
Язык : Russian
Service kind : Complete Main
Default : Нет
Forced : Нет

Аудио #4
Идентификатор : 5
Формат : AC-3
Формат/Информация : Audio Coding 3
Коммерческое название : Dolby Digital
Идентификатор кодека : A_AC3
Продолжительность : 1 ч. 43 м.
Вид битрейта : Постоянный
Битрейт : 192 Кбит/сек
Каналы : 2 канала
Channel layout : L R
Частота : 48,0 КГц
Частота кадров : 31,250 кадров/сек (1536 SPF)
Метод сжатия : С потерями
Размер потока : 142 Мбайт (0%)
Заголовок : MVO TV3
Язык : Russian
Service kind : Complete Main
Default : Нет
Forced : Нет

Аудио #5
Идентификатор : 6
Формат : AC-3
Формат/Информация : Audio Coding 3
Коммерческое название : Dolby Digital
Идентификатор кодека : A_AC3
Продолжительность : 1 ч. 43 м.
Вид битрейта : Постоянный
Битрейт : 384 Кбит/сек
Каналы : 6 каналов
Channel layout : L R C LFE Ls Rs
Частота : 48,0 КГц
Частота кадров : 31,250 кадров/сек (1536 SPF)
Метод сжатия : С потерями
Размер потока : 284 Мбайт (1%)
Заголовок : DVO Twister
Язык : Russian
Service kind : Complete Main
Default : Нет
Forced : Нет

Аудио #6
Идентификатор : 7
Формат : AC-3
Формат/Информация : Audio Coding 3
Коммерческое название : Dolby Digital
Идентификатор кодека : A_AC3
Продолжительность : 1 ч. 43 м.
Вид битрейта : Постоянный
Битрейт : 384 Кбит/сек
Каналы : 6 каналов
Channel layout : L R C LFE Ls Rs
Частота : 48,0 КГц
Частота кадров : 31,250 кадров/сек (1536 SPF)
Метод сжатия : С потерями
Размер потока : 284 Мбайт (1%)
Заголовок : AVO Gavrilov
Язык : Russian
Service kind : Complete Main
Default : Нет
Forced : Нет

Аудио #7
Идентификатор : 8
Формат : DTS
Формат/Информация : Digital Theater Systems
Идентификатор кодека : A_DTS
Продолжительность : 1 ч. 43 м.
Вид битрейта : Постоянный
Битрейт : 1 509 Кбит/сек
Каналы : 6 каналов
Channel layout : C L R Ls Rs LFE
Частота : 48,0 КГц
Частота кадров : 93,750 кадра/сек (512 SPF)
Битовая глубина : 24 бит
Метод сжатия : С потерями
Размер потока : 1,09 Гбайт (2%)
Заголовок : AVO Gorchakov
Язык : Russian
Default : Нет
Forced : Нет

Аудио #8
Идентификатор : 9
Формат : AC-3
Формат/Информация : Audio Coding 3
Коммерческое название : Dolby Digital
Идентификатор кодека : A_AC3
Продолжительность : 1 ч. 43 м.
Вид битрейта : Постоянный
Битрейт : 640 Кбит/сек
Каналы : 6 каналов
Channel layout : L R C LFE Ls Rs
Частота : 48,0 КГц
Частота кадров : 31,250 кадров/сек (1536 SPF)
Метод сжатия : С потерями
Размер потока : 473 Мбайт (1%)
Заголовок : AVO Zhivov
Язык : Russian
Service kind : Complete Main
Default : Нет
Forced : Нет

Аудио #9
Идентификатор : 10
Формат : AC-3
Формат/Информация : Audio Coding 3
Коммерческое название : Dolby Digital
Идентификатор кодека : A_AC3
Продолжительность : 1 ч. 43 м.
Вид битрейта : Постоянный
Битрейт : 192 Кбит/сек
Каналы : 2 канала
Channel layout : L R
Частота : 48,0 КГц
Частота кадров : 31,250 кадров/сек (1536 SPF)
Метод сжатия : С потерями
Размер потока : 142 Мбайт (0%)
Заголовок : Dub NLO TV
Язык : Ukrainian
Service kind : Complete Main
Default : Нет
Forced : Нет

Аудио #10
Идентификатор : 11
Формат : AC-3
Формат/Информация : Audio Coding 3
Коммерческое название : Dolby Digital
Идентификатор кодека : A_AC3
Продолжительность : 1 ч. 43 м.
Вид битрейта : Постоянный
Битрейт : 448 Кбит/сек
Каналы : 6 каналов
Channel layout : L R C LFE Ls Rs
Частота : 48,0 КГц
Частота кадров : 31,250 кадров/сек (1536 SPF)
Метод сжатия : С потерями
Размер потока : 331 Мбайт (1%)
Заголовок : DVO 1+1
Язык : Ukrainian
Service kind : Complete Main
Default : Нет
Forced : Нет

Аудио #11
Идентификатор : 12
Формат : AC-3
Формат/Информация : Audio Coding 3
Коммерческое название : Dolby Digital
Идентификатор кодека : A_AC3
Продолжительность : 1 ч. 43 м.
Вид битрейта : Постоянный
Битрейт : 192 Кбит/сек
Каналы : 2 канала
Channel layout : L R
Частота : 48,0 КГц
Частота кадров : 31,250 кадров/сек (1536 SPF)
Метод сжатия : С потерями
Размер потока : 142 Мбайт (0%)
Заголовок : DVO Saryarqa
Язык : Kazakh
Service kind : Complete Main
Default : Нет
Forced : Нет

Аудио #12
Идентификатор : 13
Формат : DTS XLL
Формат/Информация : Digital Theater Systems
Коммерческое название : DTS-HD Master Audio
Идентификатор кодека : A_DTS
Продолжительность : 1 ч. 43 м.
Вид битрейта : Переменный
Битрейт : 4 287 Кбит/сек
Каналы : 6 каналов
Channel layout : C L R Ls Rs LFE
Частота : 48,0 КГц
Частота кадров : 93,750 кадра/сек (512 SPF)
Битовая глубина : 24 бит
Метод сжатия : Без потерь
Размер потока : 3,09 Гбайт (6%)
Заголовок : Original 5.1
Язык : English
Default : Нет
Forced : Нет

Аудио #13
Идентификатор : 14
Формат : DTS XLL
Формат/Информация : Digital Theater Systems
Коммерческое название : DTS-HD Master Audio
Идентификатор кодека : A_DTS
Продолжительность : 1 ч. 43 м.
Вид битрейта : Переменный
Битрейт : 1 616 Кбит/сек
Каналы : 2 канала
Channel layout : L R
Частота : 48,0 КГц
Частота кадров : 93,750 кадра/сек (512 SPF)
Битовая глубина : 24 бит
Метод сжатия : Без потерь
Размер потока : 1,17 Гбайт (2%)
Заголовок : Original 2.0
Язык : English
Default : Нет
Forced : Нет

Аудио #14
Идентификатор : 15
Формат : DTS XLL
Формат/Информация : Digital Theater Systems
Коммерческое название : DTS-HD Master Audio
Идентификатор кодека : A_DTS
Продолжительность : 1 ч. 43 м.
Вид битрейта : Переменный
Битрейт : 1 508 Кбит/сек
Каналы : 2 канала
Channel layout : L R
Частота : 48,0 КГц
Частота кадров : 93,750 кадра/сек (512 SPF)
Битовая глубина : 24 бит
Метод сжатия : Без потерь
Размер потока : 1,09 Гбайт (2%)
Заголовок : Commentary
Язык : English
Default : Нет
Forced : Нет

Текст #1
Идентификатор : 16
Формат : UTF-8
Идентификатор кодека : S_TEXT/UTF8
Идентификатор кодека/Информация : UTF-8 Plain Text
Продолжительность : 1 ч. 36 м.
Битрейт : 60 бит/сек
Count of elements : 831
Размер потока : 42,7 Кбайт (0%)
Заголовок : Russian 1
Язык : Russian
Default : Нет
Forced : Нет

Текст #2
Идентификатор : 17
Формат : UTF-8
Идентификатор кодека : S_TEXT/UTF8
Идентификатор кодека/Информация : UTF-8 Plain Text
Продолжительность : 1 ч. 36 м.
Битрейт : 84 бит/сек
Count of elements : 917
Размер потока : 59,5 Кбайт (0%)
Заголовок : Russian 2
Язык : Russian
Default : Нет
Forced : Нет

Текст #3
Идентификатор : 18
Формат : UTF-8
Идентификатор кодека : S_TEXT/UTF8
Идентификатор кодека/Информация : UTF-8 Plain Text
Продолжительность : 1 ч. 36 м.
Битрейт : 47 бит/сек
Count of elements : 1050
Размер потока : 33,3 Кбайт (0%)
Заголовок : English
Язык : English
Default : Нет
Forced : Нет

Текст #4
Идентификатор : 19
Формат : UTF-8
Идентификатор кодека : S_TEXT/UTF8
Идентификатор кодека/Информация : UTF-8 Plain Text
Продолжительность : 1 ч. 37 м.
Битрейт : 57 бит/сек
Count of elements : 1246
Размер потока : 40,7 Кбайт (0%)
Заголовок : English SDH
Язык : English
Default : Нет
Forced : Нет

Меню
00:00:00.000 : :Vietnam, 1968
00:07:18.355 : :M.I.A./Main Titles
00:12:00.136 : :Hostage Situation
00:15:22.880 : :Successful Mission
00:20:28.060 : :Memory Clearance
00:24:56.745 : :Flashing Back
00:28:40.052 : :Running on Empty
00:32:40.667 : :Nice to See You
00:37:56.774 : :Duck and Cover
00:42:20.455 : :Asking Questions
00:47:13.164 : :Break and Ram
00:52:56.632 : :Giving New Orders
00:54:59.963 : :Profiling Dr. Gregor
01:01:21.177 : :I Just Want to Eat
01:04:29.324 : :Frozen Food Section
01:08:24.809 : :My Regeneration
01:12:22.922 : :Not Going Anywhere
01:16:19.241 : :Desert Chase
01:20:47.384 : :Coming Home
01:25:44.806 : :The War is Over
01:29:13.598 : :Chain of Command
01:31:52.924 : :Turning the Tide
01:35:36.981 : :Dishonorable Discharge
01:38:13.888 : :End Credits
`

Скриншоты

imageimageimageimageimageimageimageimageimageimage


More at ibit.to
And ibit.uno
And ibit.am
And ibit.ws

Comments

1 week ago

dfhrtfgj, это здесь лишнее скрытый текст Видео #2 Идентификатор : 2 Формат : HEVC Формат/Информация : High Efficiency Video Coding Профиль формата : Main [email protected]@High HDR format : SMPTE ST 2086, HDR10 compatible Идентификатор кодека : V_MPEGH/ISO/HEVC Продолжительность : 1 ч. 43 м. Битрейт : 16,0 Мбит/сек Ширина : 1 920 пикселей Высота : 1 080 пикселей Соотношение сторон : 16:9 Режим частоты кадров : Постоянный Частота кадров : 24,000 кадра/сек Цветовое пространство : YUV Субдискретизация насыщенности : 4:2:0 (Type 2) Битовая глубина : 10 бит Бит/(Пиксели*Кадры) : 0.322 Размер потока : 11,6 Гбайт (17%) Заголовок : Universal.Soldier.1992.2160p.BluRay.REMUX.HEVC.DTS-HD.MA.5.1-FGT Default : Нет Forced : Нет Цветовой диапазон : Limited Основные цвета : BT.2020 Характеристики трансфера : PQ Коэффициенты матрицы : BT.2020 non-constant Mastering display color primaries : Display P3 Mastering display luminance : min: 0.0001 cd/m2, max: 1000 cd/m2

1 week ago

arxivariys писал(а): 83113384dfhrtfgj, это здесь лишнее скрытый текст Видео #2 Идентификатор : 2 Формат : HEVC Формат/Информация : High Efficiency Video Coding Профиль формата : Main [email protected]@High HDR format : SMPTE ST 2086, HDR10 compatible Идентификатор кодека : V_MPEGH/ISO/HEVC Продолжительность : 1 ч. 43 м. Битрейт : 16,0 Мбит/сек Ширина : 1 920 пикселей Высота : 1 080 пикселей Соотношение сторон : 16:9 Режим частоты кадров : Постоянный Частота кадров : 24,000 кадра/сек Цветовое пространство : YUV Субдискретизация насыщенности : 4:2:0 (Type 2) Битовая глубина : 10 бит Бит/(Пиксели*Кадры) : 0.322 Размер потока : 11,6 Гбайт (17%) Заголовок : Universal.Soldier.1992.2160p.BluRay.REMUX.HEVC.DTS-HD.MA.5.1-FGT Default : Нет Forced : Нет Цветовой диапазон : Limited Основные цвета : BT.2020 Характеристики трансфера : PQ Коэффициенты матрицы : BT.2020 non-constant Mastering display color primaries : Display P3 Mastering display luminance : min: 0.0001 cd/m2, max: 1000 cd/m2 Так, сейчас уберём и перезальём. pdk87 писал(а): 83113335Леди в поезде / Lady on a Train (A Dama Desconhecida) / 1945 /(1080p) когда будет Не понимаю, к чему тут этот вопрос, но blu-ray выходит летом. Точной даты нет.

Files

Stream

Downloading Seeding Universal Soldier (Роланд Эммерих from to 0 peers.
of
0 b/s / ↗0 b/s