• 1
  • 0
  • 671
Anonymous Downloadondemand_video
  • Truth.or.Dare.2018.EXTENDED.720p.WEB-DL.XviD.MP3-FGT
  • 2.5 GB
  • Truth Dare 2018 EXTENDED 720p XviD
  • XVID/720
Warning! Use a VPN When Downloading Torrents!
Your IP Address is ,
Your Internet Provider can see when you download torrents! Hide your IP ADDRESS with a VPN
We strongly recommend Trust.Zone VPN to hide your torrenting. It's FREE!
DOWNLOAD VPN
52%

Truth or Dare (2017)

  • Horror
  • Eight college friends head to a "Haunted Rental" in a remote town for Halloween weekend. There, they play the game rumored to have caused the deaths of seven teenagers decades earlier, Truth or Dare. What starts out as vodka induced fun, quickly turns serious when the dares become sickeningly dangerous and the truths threaten to tear the group apart. When players attempt to refuse the increasingly challenging tasks, they're met with deadly consequences, quickly discovering: you must do the dare, or the dare does you. As the death toll mounts, the remaining players must race against the clock to outrun, outsmart and outlast the simple game of Truth or Dare.

    expand_more
    English

    Description

    A harmless game of Truth or Dare among friends turns deadly when someone -- or something -- begins to punish those who tell a lie or refuse the dare.

    http://imdb.com/title/tt6772950/

    image

    image

    image

    MediaInfo:

    Video

    ID                                       : 0

    Format                                   : MPEG-4 Visual

    Format profile                           : [email protected]

    Format settings, BVOP                    : No

    Format settings, QPel                    : No

    Format settings, GMC                     : No warppoints

    Format settings, Matrix                  : Default (H.263)

    Codec ID                                 : XVID

    Codec ID/Hint                            : XviD

    Duration                                 : 1 h 40 min

    Bit rate                                 : 3 377 kb/s

    Width                                    : 1 280 pixels

    Height                                   : 532 pixels

    Display aspect ratio                     : 2.40:1

    Frame rate                               : 23.976 (24000/1001) FPS

    Color space                              : YUV

    Chroma subsampling                       : 4:2:0

    Bit depth                                : 8 bits

    Scan type                                : Progressive

    Compression mode                         : Lossy

    Bits/(Pixel*Frame)                       : 0.207

    Stream size                              : 2.37 GiB (94%)

    Writing library                          : Lavc58.1.100

    Audio

    ID                                       : 1

    Format                                   : MPEG Audio

    Format version                           : Version 1

    Format profile                           : Layer 3

    Format settings                          : Joint stereo

    Codec ID                                 : 55

    Codec ID/Hint                            : MP3

    Duration                                 : 1 h 40 min

    Bit rate mode                            : Constant

    Bit rate                                 : 192 kb/s

    Channel(s)                               : 2 channels

    Sampling rate                            : 48.0 kHz

    Compression mode                         : Lossy

    Stream size                              : 138 MiB (5%)

    Alignment                                : Aligned on interleaves

    Interleave, duration                     : 24  ms (0.58 video frame)

    Interleave, preload duration             : 504  ms


    More at ibit.to
    And ibit.uno
    And ibit.ws

    Reviews

    True horror with Cassie Scerbo, but the second half's too painful RELEASED IN 2017 and directed by Nick Simon, "Truth or Dare" concerns eight college students who decide to party overnight at a house where several similar youths died under mysterious circumstances in 1983. Some kind of malevolent entity linked to the house forces them to play three rounds of 'Truth or Dare,' with each round upping the ante. Will any of them survive? While "Truth or Dare" begins as a haunted house flick, it branches out after the first act. In other words, the youths aren't stuck in the house the entire movie. This is good because a one-dimensional setting like that can be challenging to pull off for filmmakers, as well as tedious to sit through for viewers (but 2017's "House of the Witch" surprisingly pulled off the challenge). The first 15 minutes or so are kinda fun due to the party element, but things quickly take a dark, serious turn. The mostly no-name cast is effective with Cassie Scerbo standing out as the main protagonist. She's not so no-name, of course, and the movie doesn't fail to highlight her beauty (and I'm not tawkin' 'bout nudity). Alexxis Lemire & Christina Masterson are also notable in the female department, as is Taylor Lyons in the prologue. The story is deeper than it first appears, as an interesting psychological element is eventually introduced. If you like austere TV-budget horror akin to "House of the Witch" mixed with "From Within" (2008), you'll appreciate "Truth or Dare," but be forewarned: The second half becomes increasingly painful to watch due to the "Hostel"-like 'dares' the kids must face. These parts aren't entertaining in the least, but they're gripping. And the actors are convincing. THE MOVIE RUNS about 89 minutes and was shot in the Eastern USA (no info on the exact town/state). WRITERS: Thommy Hutson & Ethan Lawrence. ADDITIONAL CAST: Heather Langenkamp from "A Nightmare on Elm Street" fame has a small role. GRADE: B

    Comments

    Files

    RARBG.txt 30 B
    Truth.or.Dare.2018.EXTENDED.720p.WEB-DL.XviD.MP3-FGT.avi 2.5 GB

    Stream

    Downloading Seeding Truth.or.Dare.2018.EXTENDED.720p.WEB-DL.XviD.MP3-FGT from to 0 peers.
    of
    0 b/s / ↗0 b/s