• 6
  • 1
  • 5
Sponsored Downloadondemand_video
  • Trust Me S02 1080P RB58
  • 4.9 GB
  • redbaron58
  • Trust S02 1080P RB58
  • English
  • HD
64%

Trust Me: Trust Me(2017)

  • Drama
  • A series of gripping thrillers that expose the dark side of the people we trust to care for us - doctors.

    expand_more
    English

    Description

    Trust Me S02 1080P x264 mp4

    https://www.imdb.com/title/tt6708260/

    Thank you for your kind comments and feedback on my other torrents, your feedback is welcome.

    About the Series:

    The story of Corporal Jamie McCain, who is recovering from a spinal injury which has left
    him paralysed. But he faces a new enemy when patients on the ward start dying unexpectedly around him.
    Jamie believes the deaths are suspicious, but unable to move, his investigation
    is dangerous and difficult.

    Starring John Hannah, Ashley Jensen and Alfred Enoch

    I hope you enjoy.

    image

    image

    Technical:

    General

    Complete name : I:Trust Me S02Trust Me S02E01 1080P x264 RB58.mp4

    Format : MPEG-4

    Format profile : Base Media

    Codec ID : isom

    File size : 1.22 GiB

    Duration : 55mn 34s

    Overall bit rate mode : Variable

    Overall bit rate : 3 147 Kbps

    Writing application : VideoReDo (Lavf56.25.101)

    Video

    ID : 1

    Format : AVC

    Format/Info : Advanced Video Codec

    Format profile : [email protected]
    Format settings, CABAC : Yes

    Format settings, ReFrames : 3 frames

    Codec ID : avc1

    Codec ID/Info : Advanced Video Coding

    Duration : 55mn 34s

    Bit rate mode : Variable

    Bit rate : 3 016 Kbps

    Maximum bit rate : 19.2 Mbps

    Width : 1 920 pixels

    Height : 1 080 pixels

    Display aspect ratio : 16:9

    Frame rate mode : Constant

    Frame rate : 25.000 fps

    Standard : PAL

    Color space : YUV

    Chroma subsampling : 4:2:0

    Bit depth : 8 bits

    Scan type : Interlaced

    Scan order : Top Field First

    Bits/(Pixel*Frame) : 0.058

    Stream size : 1.17 GiB (96%)

    Color range : Limited

    Color primaries : BT.709

    Transfer characteristics : BT.709

    Matrix coefficients : BT.709

    Audio

    ID : 2

    Format : AAC

    Format/Info : Advanced Audio Codec

    Format profile : LC

    Codec ID : 40

    Duration : 55mn 34s

    Duration_LastFrame : -21ms

    Bit rate mode : Variable

    Bit rate : 125 Kbps

    Maximum bit rate : 128 Kbps

    Channel(s) : 2 channels

    Channel positions : Front: L R

    Sampling rate : 48.0 KHz

    Compression mode : Lossy

    Stream size : 49.9 MiB (4%)

    Language : English


    More at ibit.to
    And ibit.uno
    And ibit.ws

    Reviews

    Comments

    Files

    Trust Me S02/Trust Me S02E04 1080P x264 RB58.mp4 1.3 GB
    Trust Me S02/where I upload.txt 500 B
    Trust Me S02/Trust Me S02E01 1080P x264 RB58.mp4 1.2 GB
    Trust Me S02/Trust Me S02E02 1080P x264 RB58.mp4 1.2 GB
    Trust Me S02/Trust Me S02E03 1080P x264 RB58.mp4 1.2 GB

    Stream

    Downloading Seeding Trust Me S02 1080P RB58 from to 0 peers.
    of
    0 b/s / ↗0 b/s