• 0
  • 0
  • done
Sponsored Downloadondemand_video
  • True Detective S03 (2019) WEBRip (Gears Media)
  • 6.1 GB
  • t_a_r
  • True Detective S03 2019 WEBRip Gears Media
  • Зарубежные сериалы

Description

Настоящий детектив / True Detective

image

Год выпуска: 2019

Страна: США

Жанр: детектив, криминал, триллер, драма

Продолжительность: ~00:58:00

Перевод : Профессиональный (двухголосый закадровый) Gears Media

Режиссёр: Ник Пиццолатто, Джереми Солнье, Дэниэл Сакхайм

В ролях: Махершала Али, Кармен Эджого, Стивен Дорфф, Скут МакНэри, Рэй Фишер, Бретт Каллен, Джон Тенни, Джош Хопкинс, Мэми Гаммер, Сара Гадон, Риз Уэйкфилд, Брэндон Флинн, Ричард Миэн, Майкл Грейес, Майкл Грациадей, Теа Эмили Нельсон, Гарет Уильямс и др.

Описание: Третий сезон. Действие разворачивается в районе известнякового плато Озарк, расположенного одновременно в нескольких штатах. Детектив Уэйн Хейз совместно со следователем из Арканзаса Роландом Уэстом пытаются разобраться в загадочном преступлении, растянувшемся на три десятилетия.

Ссылка на предыдущие и альтернативные раздачи : http://rutracker.org/forum/tracker.php?g=foreign_serials&nm=True+Detective

Сэмпл : http://multi-up.com/1220901

Качество : WEBRip

Формат : AVI

Видео : XviD, 720x400 at 23.976 fps, ~1500 kbps avg

Аудио1: Russian, MP3, 48 kHz, 2 ch, 128 kbps

Аудио2: English, MP3, 48 kHz, 2 ch, 128 kbps

Субтитры : нет

Реклама : аудио (два раза, в начале и конце, по 12 сек.)

MediaInfo

Format : AVI
Format/Info : Audio Video Interleave
File size : 738 MiB
Duration : 58 min 51 s
Overall bit rate : 1 753 kb/s
Writing application : Lavf58.20.100

Video
ID : 0
Format : MPEG-4 Visual
Format profile : Advanced Simple@L5
Format settings : BVOP1
Format settings, BVOP : 1
Format settings, QPel : No
Format settings, GMC : No warppoints
Format settings, Matrix : Default (H.263)
Codec ID : XVID
Codec ID/Hint : XviD
Duration : 58 min 51 s
Bit rate : 1 476 kb/s
Width : 720 pixels
Height : 400 pixels
Display aspect ratio : 16:9
Frame rate : 23.976 (24000/1001) FPS
Color space : YUV
Chroma subsampling : 4:2:0
Bit depth : 8 bits
Scan type : Progressive
Compression mode : Lossy
Bits/(Pixel*Frame) : 0.214
Stream size : 621 MiB (84%)
Writing library : XviD 67

Audio #1
ID : 1
Format : MPEG Audio
Format version : Version 1
Format profile : Layer 3
Format settings : Joint stereo
Codec ID : 55
Codec ID/Hint : MP3
Duration : 58 min 51 s
Bit rate mode : Constant
Bit rate : 128 kb/s
Channel(s) : 2 channels
Sampling rate : 48.0 kHz
Compression mode : Lossy
Stream size : 53.9 MiB (7%)
Alignment : Aligned on interleaves
Interleave, duration : 24 ms (0.58 video frame)
Title : Gears Media
Writing library : LAME3.100UUU7eТ·l¶Ъ

Audio #2
ID : 2
Format : MPEG Audio
Format version : Version 1
Format profile : Layer 3
Format settings : Joint stereo
Codec ID : 55
Codec ID/Hint : MP3
Duration : 58 min 51 s
Bit rate mode : Constant
Bit rate : 128 kb/s
Channel(s) : 2 channels
Sampling rate : 48.0 kHz
Compression mode : Lossy
Stream size : 53.9 MiB (7%)
Alignment : Aligned on interleaves
Interleave, duration : 24 ms (0.58 video frame)

Скриншоты

image image image image

Внимание! Раздача ведётся путём добавления новых серий

Внимание! Раздача ведётся путём добавления новых серий; при каждом добавлении создаётся новый торрент. Чтобы начать докачку новой серии, пользователям необходимо сделать следующее:
(1) остановить скачивание,
(2) удалить старый торрент у себя из клиента (старые серии удалять не надо),
(3) скачать новый торрент и запустить его у себя в клиенте вместо старого, при этом указать клиенту путь в старую папку куда и должно происходить скачивание новых серий.

Ваш клиент при этом должен произвести хеширование (проверку) старой папки (если не производит сам - помогите ему сделать это), и будет докачивать только те серии которых у вас ещё нет. Старые серии при этом не удаляются, а продолжают раздаваться!

Eсли вы уже удалили старые серии, то предотвратить повторную закачку старых серий можно, отжав галочку в соответствующих местах при запуске нового торрента. По возможности, желательно не удалять старые серии как можно дольше чтобы релизёр не столько продолжал раздавать старые серии, а смог сконцентрироваться на новых.


More at ibit.to
And ibit.uno
And ibit.ws

Comments

4 months ago

Этот сезон чем-то отдаленно похож на первый по атмосфере. Очень неплохо. Второй сезон и рядом не стоял.

4 months ago

2 сезон - Настоящий детектив...!!! СУПЕР!!!А вот 1-сезон - если бы не игра Харрельсона и, естественно, Макконахью... И саундтрека - бред сивой кобылы... С точки зрения детектива...

4 months ago

Первый сезон шикарен, второй средненький, даже не запомнился конечно посмотрю третий сезон, но у меня вопрос а в третьем сезоне белые актеры есть ?

4 months ago
  • в 5 эпизоде нет настроек кодирования, чёрные полосы справа и слева скрытый текст General Complete name : G:True Detective S03 (2019) WEBRip (Gears Media)True Detective S03E05 (2019) WEBRip (Gears Media).avi Format : AVI Format/Info : Audio Video Interleave File size : 730 MiB Duration : 59 min 39 s Overall bit rate : 1 710 kb/s Writing application : Lavf57.29.101Video ID : 0 Format : xvid Codec ID : xvid Duration : 59 min 39 s Bit rate : 1 433 kb/s Width : 720 pixels Height : 400 pixels Display aspect ratio : 16:9 Frame rate : 23.976 (24000/1001) FPS Scan type : Progressive Bits/(Pixel*Frame) : 0.208 Stream size : 612 MiB (84%)Audio #1 ID : 1 Format : MPEG Audio Format version : Version 1 Format profile : Layer 3 Mode : Joint stereo Mode extension : MS Stereo Codec ID : 55 Codec ID/Hint : MP3 Duration : 59 min 39 s Bit rate mode : Constant Bit rate : 128 kb/s Channel(s) : 2 channels Sampling rate : 48.0 kHz Compression mode : Lossy Stream size : 54.6 MiB (7%) Alignment : Aligned on interleaves Interleave, duration : 24 ms (0.58 video frame) Interleave, preload duratio : 24 ms Title : Gears Media Writing library : LAME3.99.5Audio #2 ID : 2 Format : MPEG Audio Format version : Version 1 Format profile : Layer 3 Mode : Joint stereo Mode extension : MS Stereo Codec ID : 55 Codec ID/Hint : MP3 Duration : 59 min 39 s Bit rate mode : Constant Bit rate : 128 kb/s Channel(s) : 2 channels Sampling rate : 48.0 kHz Compression mode : Lossy Stream size : 54.6 MiB (7%) Alignment : Aligned on interleaves Interleave, duration : 24 ms (0.58 video frame) Writing library : LAME3.99. Критерии присвоения статусов # (сомнительно) и Т (временная). # сомнительно
4 months ago

С трудом поверил в то, что заставил себя смотреть это унылое г**** до 4 серии.

3 months ago

geneos писал(а): 76867366С трудом поверил в то, что заставил себя смотреть это унылое говно до 4 серии. Блин, насколько ты- т**** уб*- себя уважаешь? Пост, свой, перечитай. "С трудом поверь", что ты да**

3 months ago

По сравнению со вторым сезоном, а тем более с первым, обыкновенная, дешевая, скучная стрепня. Как "С легким паром 2" и прочее - тупо состригли бабло. Положительные отзывы могут писать те, кто ничего не понял в первых двух сезонах, обыкновенные любители мыла. Не качайте и не смотрите, зря потратите время!!! На русской звуковой дорожке реклама встроена в начале и в конце. Поэтому советую включать английскую дорожку хотя бы в начале, а то можно испортить атмосферу на весь просмотр.

3 months ago

allavv писал(а): 76872039 geneos писал(а): 76867366С трудом поверил в то, что заставил себя смотреть это унылое говно до 4 серии. Блин, насколько ты- т**** уб*- себя уважаешь? Пост, свой, перечитай. "С трудом поверь", что ты да* Всем участникам данного форума запрещается: 2.1. Оскорблять участников форума в любой форме (Запрещено проявление любой грубости, угроз, личных оскорблений и нецензурных высказываний, в том числе и в скрытой форме, как в отношении юридических, так и конкретных физических лиц). Участники должны соблюдать уважительную форму общения.

3 months ago

geneos allavvБан или запрет на сообщения хотите?Правила

3 months ago

Enic84 писал(а): 76823732Первый сезон шикарен, второй средненький, даже не запомнился конечно посмотрю третий сезон, но у меня вопрос а в третьем сезоне белые актеры есть ? Конечно! Играют пидоров, шлюх, политиканов, алкашей

3 months ago

гирс медиа. озвучивает какой-то пудель, которого не слышно вообще. Приходится трижды отматывать чтобы расслышать что он выдавил из себя

3 months ago

tigra77Есть альтернативные раздачи

3 months ago

Celta88 писал(а): 76873727geneos allavvБан или запрет на сообщения хотите?Правила Не мешало бы разъяснить, в каком месте и какие правила нарушил я.

3 months ago

Спасибо! Сериал зацепил, а у вас всегда можно скачать раньше.

3 months ago

концовка шляпная .

3 months ago

sensory456 писал(а): 76941929концовка шляпная . Причем эта шляпа предсказуема.

3 months ago

Ой, нет, про негров пусть сам Пицалото смотрит:)

3 months ago

а что с отцом случилось? я пропустил?

3 months ago

Нытье про второй сезон достигло цели - сняли унылое говно по лекалам первого сезона, нате, жрите.

3 months ago

согласен испортили сериал...типо тема в 3 разных временах а сюжет гамно(((

3 months ago

Некоторые возвели первый сезон чуть ли не в ранг лучшего сериала всех времен и теперь все, отличное от него это - состригание бабла, ой опять черные всюду, не торт, а вот первый был лушше и так далее. Мне третий сезон понравился больше остальных. Интрига была, интерес был, актеры хорошие, саспенс, детективная составляющая на высоте. Немного перебор - это глюки ГГ в третьем времени, но это вполне себе ожидаемо. Так что мой совет- не читайте мнения местных эстетов, а смотрите сами и делайте выводы. Всем добра!

3 months ago

Муть полная!

3 months ago

С бытовым плеером несовместимо данное видео.

Files

True Detective S03E01 (2019) WEBRip (Gears Media).avi 738 MB
True Detective S03E02 (2019) WEBRip (Gears Media).avi 735 MB
True Detective S03E07 (2019) WEBRip (Gears Media).avi 739 MB
True Detective S03E08 (2019) WEBRip (Gears Media).avi 969 MB
True Detective S03E05 (2019) WEBRip (Gears Media).avi 730 MB
True Detective S03E06 (2019) WEBRip (Gears Media).avi 739 MB
True Detective S03E04 (2019) WEBRip (Gears Media).avi 854 MB
True Detective S03E03 (2019) WEBRip (Gears Media).avi 699 MB

Stream

Downloading Seeding True Detective S03 (2019) WEBRip (Gears Media) from to 0 peers.
of
0 b/s / ↗0 b/s