• 0
  • 0
Downloadondemand_video
  • Tropic Thunder-AVM
  • 330 MB
  • AVIDM
  • Tropic Thunder
  • English
  • Handheld

Description

AVIDMobile - http://www.avidmobile.com.ar (Mobile media)

Video
ID : 1
Format : MPEG-4 Visual
Format profile : Advanced [email protected]
Format settings, BVOP : Yes
Format settings, QPel : No
Format settings, GMC : No warppoints
Format settings, Matrix : Default (H.263)
Codec ID : 20
Duration : 1h 46mn
Bit rate mode : Variable
Bit rate : 363 Kbps
Maximum bit rate : 1 064 Kbps
Width : 320 pixels
Height : 240 pixels
Display aspect ratio : 4/3
Frame rate mode : Variable
Frame rate : 23.976 fps
Minimum frame rate : 23.974 fps
Maximum frame rate : 23.981 fps
Resolution : 24 bits
Colorimetry : 4:2:0
Scan type : Progressive
Bits/(Pixel*Frame) : 0.197
Stream size : 278 MiB (84%)

Audio
ID : 2
Format : AAC
Format/Info : Advanced Audio Codec
Format version : Version 4
Format profile : LC
Format settings, SBR : No
Codec ID : 40
Duration : 1h 46mn
Bit rate mode : Variable
Bit rate : 66.15 Kbps
Maximum bit rate : 145 Kbps
Channel(s) : 2 channels
Channel positions : L R
Sampling rate : 22.05 KHz
Resolution : 16 bits
Stream size : 50.0 MiB (15%)


More at ibit.to
And ibit.uno
And ibit.am
And ibit.ws

Comments

12 years ago

This seems sketchy, whats the deal?

Files

Tropic Thunder-AVM 330 MB

Stream

Downloading Seeding Tropic Thunder-AVM from to 0 peers.
of
0 b/s / ↗0 b/s