• -
  • -
  • done
ondemand_video
  • Tribal Season 1 revittony
  • 1.5 GB
  • revittony1
  • Tribal Season revittony
  • TV shows
45%

Tribal: Season 1(2020)

  • 1
  • Drama Mystery
  • The department of Federal Justice attempts to save political face under the mask of inclusion and collaboration as they take control of the Tribal Police Force that governs the four Indian Reserves that surround the city. Interim Tribal Chief Samantha Woodburn attempts to overcome political red tape and must also prove herself amongst the old-white-boys club of the Metro Police. Thrust into an unfamiliar world, she navigates politics and procedure as she clashes with her new partner, Chuck "Buke" Bukansky, a seasoned but broken-down Metro Police detective. "Tribal" examines First Nation crime stories based on real world cases, including mistaken identity, pipeline controversy, healing lodge justice, social services, tobacco and missing Indigenous Peoples.

    expand_more
    English

    Description

    https://www.imdb.com/title/tt9108604



    Format : Matroska
    Format version : Version 4
    Overall bit rate : 641 kb/s
    Writing application : mkvmerge v8.8.0 ('Wind at my back') 64bit
    Writing library : libebml v1.3.3 + libmatroska v1.4.4

    Video
    ID : 1
    Format : AVC
    Format/Info : Advanced Video Codec
    Format profile : [email protected]
    Format settings : CABAC / 5 Ref Frames
    Format settings, CABAC : Yes
    Format settings, Reference frames : 5 frames
    Codec ID : VMPEG4/ISO/AVC
    Duration : 43 min 59 s
    Bit rate : 532 kb/s
    Width : 720/640 pixels
    Height : 360/480 pixels
    Display aspect ratio : 2.000
    Frame rate mode : Constant
    Frame rate : 23.976 (24000/1001) FPS
    Color space : YUV
    Chroma subsampling : 4:2:0
    Bit depth : 8 bits
    Scan type : Progressive
    Bits/(Pixel*Frame) : 0.086
    Stream size : 167 MiB (83%)
    Writing library : x264 core 159 r2991 1771b55
    Default : Yes
    Forced : No
    Color range : Limited
    Matrix coefficients : BT.709

    Audio
    ID : 2
    Format : AAC LC
    Format/Info : Advanced Audio Codec Low Complexity
    Codec ID : A
    AAC-2
    Duration : 43 min 59 s
    Bit rate : 107 kb/s
    Channel(s) : 2 channels
    Channel layout : L R
    Sampling rate : 48.0 kHz
    Frame rate : 46.875 FPS (1024 SPF)
    Compression mode : Lossy
    Delay relative to video : 20 ms
    Stream size : 33.7 MiB (17%)
    Default : Yes
    Forced : No


    More at ibit.to
    And ibit.uno
    And ibit.am
    And ibit.ws

    Reviews

    Comments

    Files

    Tribal Season 1 revittony 1.4 GB

    Stream

    Downloading Seeding Tribal Season 1 revittony from to 0 peers.
    of
    0 b/s / ↗0 b/s