• 1
  • 0
  • 19,911
  • 6
Anonymous Downloadondemand_video
Warning! Use a VPN When Downloading Torrents!
Your IP Address is ,
Your Internet Provider can see when you download torrents! Hide your IP ADDRESS with a VPN
We strongly recommend Trust.Zone VPN to hide your torrenting. It's FREE!
DOWNLOAD VPN
52%

Tremors: A Cold Day in Hell (2018)

  • Science Fiction Horror Action Comedy
  • Burt Gummer (Michael Gross) and his son Travis Welker (Jamie Kennedy) find themselves up to their ears in Graboids and Ass-Blasters when they head to Canada to investigate a series of deadly giant-worm attacks. Arriving at a remote research facility in the artic tundra, Burt begins to suspect that Graboids are secretly being weaponized, but before he can prove his theory, he is sidelined by Graboid venom. With just 48 hours to live, the only hope is to create an antidote from fresh venom — but to do that, someone will have to figure out how to milk a Graboid!

    expand_more
    English

    Description

    The sequel finds Burt Gummer and his son Travis at a remote research station| where they must go up against Graboids that have been converted into living weapons.

    http://imdb.com/title/tt6086082/

    image

    image

    image

    MediaInfo:

    Video

    ID                                       : 0

    Format                                   : MPEG-4 Visual

    Format profile                           : [email protected]

    Format settings, BVOP                    : No

    Format settings, QPel                    : No

    Format settings, GMC                     : No warppoints

    Format settings, Matrix                  : Default (H.263)

    Codec ID                                 : XVID

    Codec ID/Hint                            : XviD

    Duration                                 : 1 h 37 min

    Source duration                          : 1 h 37 min

    Bit rate                                 : 1 577 kb/s

    Width                                    : 720 pixels

    Height                                   : 400 pixels

    Display aspect ratio                     : 16:9

    Frame rate                               : 23.976 (24000/1001) FPS

    Color space                              : YUV

    Chroma subsampling                       : 4:2:0

    Bit depth                                : 8 bits

    Scan type                                : Progressive

    Compression mode                         : Lossy

    Bits/(Pixel*Frame)                       : 0.228

    Stream size                              : 1.08 GiB (77%)

    Writing library                          : XviD 1.1.2 (UTC 2006-11-01)

    Audio

    ID                                       : 1

    Format                                   : AC-3

    Format/Info                              : Audio Coding 3

    Codec ID                                 : 2000

    Duration                                 : 1 h 37 min

    Bit rate mode                            : Constant

    Bit rate                                 : 448 kb/s

    Channel(s)                               : 6 channels

    Channel positions                        : Front: L C R, Side: L R, LFE

    Sampling rate                            : 48.0 kHz

    Frame rate                               : 31.250 FPS (1536 SPF)

    Bit depth                                : 16 bits

    Compression mode                         : Lossy

    Stream size                              : 314 MiB (22%)

    Alignment                                : Aligned on interleaves

    Interleave, duration                     : 32  ms (0.77 video frame)

    Service kind                             : Complete Main


    More at ibit.to
    And ibit.uno
    And ibit.ws

    Reviews

    I will always give a _Tremors_ movie a chance, but these last two movies have been very disappointing, and _Cold Day in Hell_ made me feel especially let down. Could not deliver on even its own incredibly weak promise of "Graboids but there's snow now". _Final rating:★½: - Boring/disappointing. Avoid where possible._

    Comments

    2 years ago

    YES YES YES This is one camp series I hope never dies Take your airborne sharks and mega snakes and shove em!

    anonymous 2 years ago

    Right on!

    2 years ago

    It's Tremors... Campy but fun. It would be nice to have the original cast back though.

    2 years ago

    I love the fact it's still going but nothing compares to the first one.

    2 years ago

    Holy sh*t they ran this series into the ground. Let it go man, let it go!

    2 years ago

    Kevin Bacon must be wetting himself

    2 years ago

    nice 1!

    2 years ago

    nice

    2 years ago

    aaaaaaarghhh. People starve globally and money gets wasted on this! Life makes no sense.

    2 years ago

    Not due out till May 1st. Nice early treat.

    2 years ago

    WHAT! EGGS BUT NO BACON!!!

    2 years ago

    I found  the ass end!

    2 years ago

    Ha Ha Nice one! much appreciated!

    2 years ago

    Perfection

    2 years ago

    Love these movies, keep up the good work

    2 years ago

    Thank you OldFart, keep up the good work

    2 years ago

    Looks very classy

    Files

    RARBG.txt 30 B
    Tremors.A.Cold.Day.in.Hell.2018.DVDRip.XviD.AC3-EVO.avi 1.4 GB
    Tremors.A.Cold.Day.in.Hell.2018.DVDRip.XviD.AC3EVO -
    Tremors.A.Cold.Day.in.Hell.2018.DVDRip.XviD.AC3EVO.avi 1.4 GB

    Stream

    Downloading Seeding Tremors.A.Cold.Day.in.Hell.2018.DVDRip.XviD.AC3-EVO from to 0 peers.
    of
    0 b/s / ↗0 b/s