• 8
  • 0
  • done
Sponsored Downloadondemand_video
  • Toy Story That Time Forgot (2014) 1080p BDRip x265 DTS-HD MA 7.1 Goki [SEV]
  • 1.4 GB
  • Goki
  • Toy Story Time Forgot 2014 1080p BDRip x265 DTS Goki SEV
  • English
  • HEVC/x265
68%

Toy Story That Time Forgot (2014)

  • Animation Family TV Movie Adventure Comedy Fantasy
  • During a post-Christmas play date, the gang find themselves in uncharted territory when the coolest set of action figures ever turn out to be dangerously delusional. It's all up to Trixie, the triceratops, if the gang hopes to return to Bonnie's room in this Toy Story That Time Forgot.

    expand_more
    English

    Description

    imageimage

    imageimage

    Screenshots

    imageimageimageimage

    Media Information

    Unique ID                                : 57601543913584027746746995521198530746 (0x2B55A7612E468F20299E3812B620A0BA)

    Complete name                            : Toy Story That Time Forgot (2014) 1080p BDRip x265 DTS-HD MA 7.1 Goki [SEV].mkv

    Format                                   : Matroska

    Format version                           : Version 4

    File size                                : 1.38 GiB

    Duration                                 : 21 min 36 s

    Overall bit rate mode                    : Variable

    Overall bit rate                         : 9 131 kb/s

    Movie name                               : Toy Story That Time Forgot (2014) 1080p BDRip x265 DTS-HD MA 7.1 Goki [SEV]

    Encoded date                             : UTC 2019-03-17 01:43:35

    Writing application                      : mkvmerge v28.2.0 ('The Awakening') 64-bit

    Writing library                          : libebml v1.3.6 + libmatroska v1.4.9

    Video

    ID                                       : 1

    Format                                   : HEVC

    Format/Info                              : High Efficiency Video Coding

    Format profile                           : Main [email protected]@Main

    Codec ID                                 : V_MPEGH/ISO/HEVC

    Duration                                 : 21 min 36 s

    Bit rate                                 : 4 639 kb/s

    Width                                    : 1 920 pixels

    Height                                   : 1 080 pixels

    Display aspect ratio                     : 16:9

    Frame rate mode                          : Constant

    Frame rate                               : 23.976 (24000/1001) FPS

    Color space                              : YUV

    Chroma subsampling                       : 4:2:0

    Bit depth                                : 10 bits

    Bits/(Pixel*Frame)                       : 0.093

    Stream size                              : 717 MiB (51%)

    Writing library                          : x265 2.9+8-27d8424c799d:[Windows][MSVC 1915][64 bit] 10bit

    Encoding settings                        : cpuid=1111039 / frame-threads=3 / numa-pools=8 / wpp / no-pmode / no-pme / no-psnr / no-ssim / log-level=2 / input-csp=1 / input-res=1920x1080 / interlace=0 / total-frames=0 / level-idc=0 / high-tier=1 / uhd-bd=0 / ref=4 / no-allow-non-conformance / no-repeat-headers / annexb / no-aud / no-hrd / info / hash=0 / no-temporal-layers / open-gop / min-keyint=23 / keyint=250 / gop-lookahead=0 / bframes=8 / b-adapt=2 / b-pyramid / bframe-bias=0 / rc-lookahead=100 / lookahead-slices=4 / scenecut=40 / radl=0 / no-intra-refresh / ctu=64 / min-cu-size=8 / no-rect / no-amp / max-tu-size=32 / tu-inter-depth=2 / tu-intra-depth=2 / limit-tu=4 / rdoq-level=2 / dynamic-rd=0.00 / no-ssim-rd / signhide / no-tskip / nr-intra=0 / nr-inter=0 / no-constrained-intra / no-strong-intra-smoothing / max-merge=3 / limit-refs=2 / limit-modes / me=3 / subme=5 / merange=57 / temporal-mvp / weightp / weightb / no-analyze-src-pics / deblock=0:0 / sao / no-sao-non-deblock / rd=6 / no-early-skip / rskip / no-fast-intra / no-tskip-fast / no-cu-lossless / b-intra / no-splitrd-skip / rdpenalty=0 / psy-rd=1.30 / psy-rdoq=2.00 / no-rd-refine / no-lossless / cbqpoffs=0 / crqpoffs=0 / rc=crf / crf=18.8 / qcomp=0.60 / qpstep=4 / stats-write=0 / stats-read=0 / ipratio=1.40 / pbratio=1.30 / aq-mode=2 / aq-strength=1.10 / cutree / zone-count=0 / no-strict-cbr / qg-size=32 / no-rc-grain / qpmax=69 / qpmin=0 / no-const-vbv / sar=1 / overscan=0 / videoformat=5 / range=0 / colorprim=2 / transfer=2 / colormatrix=2 / chromaloc=0 / display-window=0 / max-cll=0,0 / min-luma=0 / max-luma=1023 / log2-max-poc-lsb=8 / vui-timing-info / vui-hrd-info / slices=1 / no-opt-qp-pps / no-opt-ref-list-length-pps / no-multi-pass-opt-rps / scenecut-bias=0.05 / no-opt-cu-delta-qp / no-aq-motion / no-hdr / no-hdr-opt / no-dhdr10-opt / no-idr-recovery-sei / analysis-reuse-level=5 / scale-factor=0 / refine-intra=0 / refine-inter=0 / refine-mv=0 / no-limit-sao / ctu-info=0 / no-lowpass-dct / refine-mv-type=0 / copy-pic=1 / max-ausize-factor=1.0 / no-dynamic-refine / no-single-sei

    Default                                  : Yes

    Forced                                   : No

    Audio

    ID                                       : 2

    Format                                   : DTS XLL

    Format/Info                              : Digital Theater Systems

    Commercial name                          : DTS-HD Master Audio

    Codec ID                                 : A_DTS

    Duration                                 : 21 min 36 s

    Bit rate mode                            : Variable

    Bit rate                                 : 4 343 kb/s

    Channel(s)                               : 8 channels

    Channel layout                           : C L R LFE Lb Rb Lss Rss

    Sampling rate                            : 48.0 kHz

    Frame rate                               : 93.750 FPS (512 SPF)

    Bit depth                                : 24 bits

    Compression mode                         : Lossless

    Stream size                              : 671 MiB (48%)

    Title                                    : English DTS-HD MA 7.1

    Language                                 : English

    Default                                  : Yes

    Forced                                   : No

    Text #1

    ID                                       : 3

    Format                                   : PGS

    Codec ID                                 : S_HDMV/PGS

    Codec ID/Info                            : Picture based subtitle format used on BDs/HD-DVDs

    Duration                                 : 21 min 17 s

    Bit rate                                 : 57.8 kb/s

    Count of elements                        : 828

    Stream size                              : 8.80 MiB (1%)

    Title                                    : English PGS

    Language                                 : English

    Default                                  : No

    Forced                                   : No

    Text #2

    ID                                       : 4

    Format                                   : PGS

    Codec ID                                 : S_HDMV/PGS

    Codec ID/Info                            : Picture based subtitle format used on BDs/HD-DVDs

    Duration                                 : 21 min 28 s

    Bit rate                                 : 88.5 kb/s

    Count of elements                        : 868

    Stream size                              : 13.6 MiB (1%)

    Title                                    : English PGS

    Language                                 : English

    Default                                  : No

    Forced                                   : No

    Menu #1

    00:00:00.000                             : en:Chapter 1

    00:02:02.705                             : en:Chapter 2

    00:02:43.746                             : en:Chapter 3

    00:03:47.685                             : en:Chapter 4

    00:06:15.041                             : en:Chapter 5

    00:07:52.805                             : en:Chapter 6

    00:09:55.428                             : en:Chapter 7

    00:11:38.489                             : en:Chapter 8

    00:14:25.781                             : en:Chapter 9

    00:15:08.782                             : en:Chapter 10

    00:16:23.691                             : en:Chapter 11

    00:19:02.975                             : en:Chapter 12

    00:20:08.415                             : en:Chapter 13

    00:20:53.669                             : en:Chapter 14

    Source

    Blu-ray REMUX playBD

    .........................................................................................................................................

    We have no issue with individuals posting or re-uploading our torrents on a platform we aren't on. However, if this is something you'd like to do, please do so in a 'as-is' format. We ask that you do not create a new torrent, include all descriptions you see above including the SEV logo, tags, notes and screenshots. If you'd like to become a permanent poster on a website we don't post to, feel free to get in contact with a Sublime Encoded Video member.

    **We are recruiting/training new members for SEV & seedbox providers as well as people to help out with subtitles.

    As you already know, we deliver quality, so you know the standard.

    If you're interested, feel free to contact any of the team members.**


    More at ibit.to
    And ibit.uno
    And ibit.ws

    Reviews

    Comments

    Files

    Toy Story That Time Forgot (2014) 1080p BDRip x265 DTS-HD MA 7.1 Goki [SEV]-banner.jpg 280 kB
    Toy Story That Time Forgot (2014) 1080p BDRip x265 DTS-HD MA 7.1 Goki [SEV]-clearart.png 436 kB
    Toy Story That Time Forgot (2014) 1080p BDRip x265 DTS-HD MA 7.1 Goki [SEV]-clearlogo.png 137 kB
    Toy Story That Time Forgot (2014) 1080p BDRip x265 DTS-HD MA 7.1 Goki [SEV]-disc.png 1.0 MB
    Toy Story That Time Forgot (2014) 1080p BDRip x265 DTS-HD MA 7.1 Goki [SEV]-fanart.jpg 607 kB
    Toy Story That Time Forgot (2014) 1080p BDRip x265 DTS-HD MA 7.1 Goki [SEV]-logo.png 137 kB
    Toy Story That Time Forgot (2014) 1080p BDRip x265 DTS-HD MA 7.1 Goki [SEV]-poster.jpg 75 kB
    Toy Story That Time Forgot (2014) 1080p BDRip x265 DTS-HD MA 7.1 Goki [SEV]-thumb.jpg 559 kB
    Toy Story That Time Forgot (2014) 1080p BDRip x265 DTS-HD MA 7.1 Goki [SEV].mkv 1.4 GB
    Toy Story That Time Forgot (2014) 1080p BDRip x265 DTS-HD MA 7.1 Goki [SEV].nfo 4.6 kB
    Toy Story That Time Forgot (2014) 1080p BDRip x265 DTSHD MA 7.1 Goki [SEV] -

    Stream

    Downloading Seeding Toy Story That Time Forgot (2014) 1080p BDRip x265 DTS-HD MA 7.1 Goki [SEV] from to 0 peers.
    of
    0 b/s / ↗0 b/s