• 0
  • 0
  • done
Sponsored Downloadondemand_video
55%

Total Dhamaal (2019)

  • Comedy Action Adventure
  • Con-artists Guddu and Johnny, a bickering couple Avinash and Bindu who are on a verge of divorce, a fireman Lallan and his side-kick siblings Adi and Manav and a cunning police commissioner set out on a mad chase for a hidden booty of Rs 50 crores in a zoo in Janakpur.

    expand_more
    Hindi

    Description

    **SCREEN SHOTS & POSTER:
    **


    https://iphonehosting.eu/19/bankloan/owner/index.html

    https://iphonehosting.eu/19/bankloan/owner/1.html

    https://iphonehosting.eu/19/bankloan/owner/2.html

    https://iphonehosting.eu/19/bankloan/owner/3.html

    https://iphonehosting.eu/19/bankloan/owner/4.html

    https://iphonehosting.eu/19/bankloan/owner/5.html

    https://iphonehosting.eu/19/bankloan/owner/6.html

    https://iphonehosting.eu/19/bankloan/owner/7.html

    https://iphonehosting.eu/19/bankloan/owner/8.html

    https://iphonehosting.eu/19/bankloan/owner/9.html

    https://iphonehosting.eu/19/bankloan/owner/10.html

    File size                                : 709 MiB

    Duration                                 : 2 h 3 min

    Overall bit rate                         : 800 kb/s

    Movie name                               : Total Dhamaal 2019 Hindi Movies PDVDRip x264 Clean Audio New Source ☻rDX☻

    Video

    ID                                       : 2

    Format                                   : AVC

    Format/Info                              : Advanced Video Codec

    Format profile                           : [email protected]

    Format settings, CABAC                   : Yes

    Format settings, ReFrames                : 2 frames

    Format settings, GOP                     : M=1, N=12

    Codec ID                                 : V_MPEG4/ISO/AVC

    Duration                                 : 2 h 3 min

    Bit rate                                 : 720 kb/s

    Width                                    : 700 pixels

    Height                                   : 280 pixels

    Display aspect ratio                     : 2.500

    Frame rate mode                          : Constant

    Frame rate                               : 25.000 FPS

    Color space                              : YUV

    Chroma subsampling                       : 4:2:0

    Bit depth                                : 8 bits

    Scan type                                : Progressive

    Bits/(Pixel*Frame)                       : 0.147

    Stream size                              : 638 MiB (90%)

    Title                                    : ☻rDX☻

    Default                                  : Yes

    Forced                                   : No

    Audio

    ID                                       : 1

    Format                                   : AC-3

    Format/Info                              : Audio Coding 3

    Mode extension                           : CM (complete main)

    Format settings, Endianness              : Big

    Codec ID                                 : A_AC3

    Duration                                 : 2 h 3 min

    Bit rate mode                            : Constant

    Bit rate                                 : 64.0 kb/s

    Channel(s)                               : 2 channels

    Channel positions                        : Front: L R

    Sampling rate                            : 44.1 kHz

    Frame rate                               : 28.711 FPS (1536 spf)

    Bit depth                                : 16 bits

    Compression mode                         : Lossy

    Stream size                              : 56.7 MiB (8%)

    Title                                    : ☻rDX☻

    Default                                  : Yes

    Forced                                   : No

    https://www.imdb.com/title/tt7639372/


    More at ibit.to
    And ibit.uno
    And ibit.ws

    Reviews

    Comments

    Files

    Sample ~ Total Dhamaal 2019 Hindi Movies PDVDRip x264 Clean Audio New Source ☻rDX☻.mkv 4.0 MB
    Total Dhamaal 2019 Hindi Movies PDVDRip x264 Clean Audio New Source ☻rDX☻.mkv 709 MB

    Stream

    Downloading Seeding Total Dhamaal 2019 Hindi Movies PDVDRip x264 Clean Audio New Source with Sample ☻rDX☻ from to 0 peers.
    of
    0 b/s / ↗0 b/s