• 0
  • 0
  • done
Sponsored Downloadondemand_video
  • Total Dhamaal 2019 Hindi 720p PRE-DVDRip x264 [MW]
  • 1.2 GB
  • MovieFreak
  • Total Dhamaal 2019 Hindi 720p PRE DVDRip x264
  • Hindi
  • CAM/TS
54%

Total Dhamaal (2019)

  • Comedy Action Adventure
  • Con-artists Guddu and Johnny, a bickering couple Avinash and Bindu who are on a verge of divorce, a fireman Lallan and his side-kick siblings Adi and Manav and a cunning police commissioner set out on a mad chase for a hidden booty of Rs 50 crores in a zoo in Janakpur.

    expand_more
    Hindi

    Description

    image

    **General

    Format                                   : Matroska

    Format version                           : Version 4

    File size                                : 1.17 GiB

    Duration                                 : 2 h 3 min

    Overall bit rate                         : 1 346 kb/s

    Video

    ID                                       : 1

    Format                                   : AVC

    Format/Info                              : Advanced Video Codec

    Format profile                           : [email protected]

    Format settings                          : CABAC / 4 Ref Frames

    Format settings, CABAC                   : Yes

    Format settings, RefFrames               : 4 frames

    Codec ID                                 : V_MPEG4/ISO/AVC

    Duration                                 : 2 h 3 min

    Bit rate                                 : 1 200 kb/s

    Width                                    : 1 280 pixels

    Height                                   : 576 pixels

    Display aspect ratio                     : 2.222

    Frame rate mode                          : Constant

    Frame rate                               : 25.000 FPS

    Color space                              : YUV

    Chroma subsampling                       : 4:2:0

    Bit depth                                : 8 bits

    Scan type                                : Progressive

    Bits/(Pixel*Frame)                       : 0.065

    Stream size                              : 1.05 GiB (90%)

    Writing library                          : x264 core 157 r2935 545de2f

    Audio

    ID                                       : 2

    Format                                   : AAC LC

    Codec ID                                 : A_AAC-2

    Duration                                 : 2 h 3 min

    Bit rate                                 : 129 kb/s

    Channel(s)                               : 2 channels

    Channel layout                           : L R

    Sampling rate                            : 48.0 kHz

    Frame rate                               : 46.875 FPS (1024 SPF)

    Compression mode                         : Lossy

    Stream size                              : 114 MiB (10%)

    Language                                 : Hindi

    Default                                  : Yes

    Forced                                   : No**

    Click To View Image

    [](https://pichub.site/image/ksDOI)[" target="_blank">https://pichub.site/image/ksDOI](https://pichub.site/image/ksDOI https://pichub.site/image/ksd68](https://pichub.site/image/ksd68 https://pichub.site/image/kscC5](https://pichub.site/image/kscC5 https://pichub.site/image/ksVfJ](https://pichub.site/image/ksVfJ https://pichub.site/image/kswQj](https://pichub.site/image/kswQj https://pichub.site/image/kskrh](https://pichub.site/image/kskrh


    More at ibit.to
    And ibit.uno
    And ibit.ws

    Reviews

    Comments

    Files

    Total Dhamaal 2019 Hindi 720p PRE-DVDRip x264 [MW].mkv 1.2 GB
    Total Dhamaal 2019 Hindi 720p PREDVDRip x264 [MW] -
    Total Dhamaal 2019 Hindi 720p PREDVDRip x264 [MW].mkv 1.2 GB

    Stream

    Downloading Seeding Total Dhamaal 2019 Hindi 720p PRE-DVDRip x264 [MW] from to 0 peers.
    of
    0 b/s / ↗0 b/s