• 0
  • 0
Anonymous Downloadondemand_video
  • They.Live.1988.REMASTERED.720p.BrRip.x265.HEVCBay.com.mkv
  • 525 MB
  • g3m696
  • Live 1988 REMASTERED 720p BrRip x265 HEVCBay com mkv
  • English
  • Movies
Warning! Use a VPN When Downloading Torrents!
Your IP Address is ,
Your Internet Provider can see when you download torrents! Hide your IP ADDRESS with a VPN
We strongly recommend Trust.Zone VPN to hide your torrenting. It's FREE!
DOWNLOAD VPN
72%

They Live (1988)

  • Action Science Fiction Thriller
  • Nada, a wanderer without meaning in his life, discovers a pair of sunglasses capable of showing the world the way it truly is. As he walks the streets of Los Angeles, Nada notices that both the media and the government are comprised of subliminal messages meant to keep the population subdued, and that most of the social elite are skull-faced aliens bent on world domination. With this shocking discovery, Nada fights to free humanity from the mind-controlling aliens.

    expand_more
    English
  • $4,000,000
  • Description

    hevcbay.com

    `General

    Unique ID                                : 47431831622927472050234659731585276864 (0x23AF09DA15ED371211682B52EFC29BC0)

    Complete name                            : They.Live.1988.REMASTERED.720p.BrRip.x265.HEVCBay.com.mkv

    Format                                   : Matroska

    Format version                           : Version 4

    File size                                : 525 MiB

    Duration                                 : 1 h 34 min

    Overall bit rate                         : 777 kb/s

    Movie name                               : They.Live.1988.REMASTERED.720p.BrRip.x265.HEVCBay.com.mkv

    Encoded date                             : UTC 2019-03-18 02:25:38

    Writing application                      : hevcbay

    Writing library                          : hevcbay.com / Lavf58.20.100

    Comment                                  : Encoded by hevcbay.com

    ENCODED-BY                               : hevcbay.com

    Video

    ID                                       : 1

    Format                                   : HEVC

    Format/Info                              : High Efficiency Video Coding

    Format profile                           : [email protected]@Main

    Codec ID                                 : V_MPEGH/ISO/HEVC

    Duration                                 : 1 h 34 min

    Bit rate                                 : 722 kb/s

    Width                                    : 1 280 pixels

    Height                                   : 550 pixels

    Display aspect ratio                     : 2.35:1

    Original display aspect ratio            : 2.35:1

    Frame rate mode                          : Constant

    Frame rate                               : 24.000 FPS

    Color space                              : YUV

    Chroma subsampling                       : 4:2:0

    Bit depth                                : 8 bits

    Bits/(Pixel*Frame)                       : 0.043

    Stream size                              : 487 MiB (93%)

    Writing library                          : Lavc58.35.100 libx265

    Default                                  : Yes

    Forced                                   : No

    Color range                              : Limited

    Audio

    ID                                       : 2

    Format                                   : AAC LC SBR PS

    Format/Info                              : Advanced Audio Codec Low Complexity with Spectral Band Replication and Parametric Stereo

    Commercial name                          : HE-AACv2

    Format settings                          : NBC

    Codec ID                                 : A_AAC-29

    Duration                                 : 1 h 34 min

    Bit rate                                 : 53.9 kb/s

    Channel(s)                               : 2 channels

    Channel layout                           : C

    Sampling rate                            : 48.0 kHz

    Frame rate                               : 23.438 FPS (2048 SPF)

    Compression mode                         : Lossy

    Delay relative to video                  : -148 ms

    Stream size                              : 36.4 MiB (7%)

    Writing library                          : Lavc58.35.100 libfdk_aac

    Language                                 : English

    Default                                  : Yes

    Forced                                   : No

    Text #1

    ID                                       : 3

    Format                                   : UTF-8

    Codec ID                                 : S_TEXT/UTF8

    Codec ID/Info                            : UTF-8 Plain Text

    Duration                                 : 1 h 27 min

    Bit rate                                 : 38 b/s

    Count of elements                        : 737

    Stream size                              : 24.7 KiB (0%)

    Language                                 : English

    Default                                  : No

    Forced                                   : No

    Text #2

    ID                                       : 4

    Format                                   : UTF-8

    Codec ID                                 : S_TEXT/UTF8

    Codec ID/Info                            : UTF-8 Plain Text

    Duration                                 : 1 h 30 min

    Bit rate                                 : 39 b/s

    Count of elements                        : 792

    Stream size                              : 25.9 KiB (0%)

    Title                                    : SDH

    Language                                 : English

    Default                                  : No

    Forced                                   : No

    `

    image

    image

    image

    image


    More at ibit.to
    And ibit.uno
    And ibit.ws

    Reviews

    I have to admit up front to liking every single, John Carpenter movie. They are works of art in there unique style and quality. This is actually my favorite of all of them. There could be a criticism that this movie is didactic and sends some sort of clumsy political or philosophical message but I'd have to reply that you simply don't get it. Unlike the modern propensity for movies to try to hammer home some political point or perspective, the message here is only window dressing. The message may (or may not) be important but instead of getting caught up in some sort of self-important moralizing, let's remember this is a movie - and a SciFi action movie at that. (that is the approach in my opinion) If I would compare movies to literature or movie makers to authors I'd compare Carpenter to Hemingway - although Carpenter specializes in anti-heroes and sometimes over-the-top characters, while Hemingway is understated. They are analogous for their own medium. This is action, sci-fi but like Hemingway's stories, this is a man's movie. Straight forward. Fun at times, brutal at times and even funny at times. Keep a watch out for one of the great one-liners in movie history when the star is in the bank - only peripherally related to "bazooka." A+ to Roddy Piper as well. When I first saw this movie I had zero expectation from him. Now I wish he'd have made a lot more movies...

    Life's a bitch and she's back on heat! They Live is directed by John Carpenter who also adapts the screenplay form the short story Eight O'Clock in the Morning written by Ray Nelson. It stars Roddy Piper, Keith David and Meg Foster. Music is by Alan Howarth (and Carpenter) and cinematography by Gary B. Kibbe. Unemployed drifter Nada (Piper) wanders into the city looking to find work, but upon finding a unique pair of sunglasses he sees a different world to everyone else. It's a world frequented by an alien race who are using the Earth for their own nefarious means. See The Truth! Carpenter does subversive sci-fi and it's a whole bunch of fun. Stripped back it's evident that They Live is Carpenter's wry observation on the politico posers who endorse the rich getting richer and everybody else sliding down the pole; to where they stop nobody knows! It's also a blatant paean to the glorious years of the 1950s when paranoia based sci-fi schlockers and creaky creature features ruled the air waves. It's also a wonderfully macho driven action movie, laced with comedy as well. You can rest assured there will be plenty of shooting, punching, dodging and spoken lines to make you smile. Piper is no Kurt Russell, but we shouldn't hold that against him because he fills the role nicely. With muscular frame, 80s hair and a quip on the tongue, he is most assuredly a Carpenter leading man for the 80s. Alongside him is the reassuring presence of Keith David, himself a beefcake and also one of the coolest muthas on the planet. It's easy to believe that these two can save the planet, even after nearly beating each other to a pulp during a prolonged side-alley fight sequence, where Carpenter doesn't miss a chance to parody professional wrestling. While away from the beef, Meg Foster gets the lead lady role, with those amazing eyes nestling in perfectly with the world Carpenter has created. Carpenter does political? Yes, but it's not the be all and end all of his intentions. He wanted to make an action sci-fi schlocker with sly politico undertones as motives. And that's exactly what he did. Joyously so. 8/10

    Comments

    Files

    They.Live.1988.REMASTERED.720p.BrRip.x265.HEVCBay.com.mkv 525 MB

    Stream

    Downloading Seeding They.Live.1988.REMASTERED.720p.BrRip.x265.HEVCBay.com.mkv from to 0 peers.
    of
    0 b/s / ↗0 b/s