• 0
  • 0
  • done
Sponsored Downloadondemand_video
  • The.X-Files.S03.1080p.BluRay.DTS.5xRus.Ukr.Eng.TeamHD-TayTO
  • 162 GB
  • Elheym
  • Files
  • Зарубежные сери
81%

The X-Files: Specials(1998)

  • Drama Mystery Sci-Fi & Fantasy
  • The exploits of FBI Special Agents Fox Mulder and Dana Scully who investigate X-Files: marginalized, unsolved cases involving paranormal phenomena. Mulder believes in the existence of aliens and the paranormal while Scully, a skeptic, is assigned to make scientific analyses of Mulder's discoveries that debunk Mulder's work and thus return him to mainstream cases.

    expand_more
    English

    Description


    Секретные материалы / The X-Files

    Полный третий сезон

    image

    «Истина где-то рядом»

    image

    Страна: США, Канада

    Студия: 20th Century Fox Television, Ten Thirteen Productions, X-F Productions

    Жанр: фантастика, триллер, драма, детектив

    Годы выпуска: 1995-1996

    Продолжительность: ~46 минут эпизод (1073 мин.)


    Перевод 01: Профессиональный (многоголосый, закадровый)

    Телеканал ОРТ [Селена Интернейшнл]

    Перевод 02: Профессиональный (двухголосый, закадровый)

    РЕН ТВ

    Перевод 03: Авторский (одноголосый, закадровый)

    Визгунов Сергей [VHS]

    Перевод 03: Авторский (одноголосый, закадровый)

    Визгунов Сергей (+patches 2016) VHS|

    Перевод 04: Авторский (одноголосый, закадровый)

    Ю. Живов

    Перевод 05: Профессиональный (полное дублирование)

    ТВ3

    Перевод 06: Профессиональный (многоголосый, закадровый)

    Гемини фильм (1, 2, 15, 16, 24)

    Перевод 07: Профессиональный (двухголосый, закадровый) украинский

    1+1

    Оригинальная аудиодорожка: английская

    Субтитры: русские, английские

    Создатель: Крис Картер / Chris Carter

    Композитор: Марк Сноу

    В ролях: Дэвид Духовны, Джиллиан Андерсон, Уильям Б. Дэвис (Курильщик), Митч Пилледжи (Уолтер Скиннер), Брюс Харвуд (Джон Фицджеральд Байерс), Том Брэйдвуд (Мэлвин Фройк), Дин Хэглунд (Ричард Лэнгли), Дон С. Дэвис (Уилльям Скалли), Стивен Уильямс (Икс), Николас Лиа (Крайчек), Питер Донат (Уильям Малдер), Шейла Ларкен (Маргарет Скалли), Брайан Томпсон (Инопланетный Охотник), Ребекка Тулан (Тина Малдер), Флойд Вестерман (Альберт Хостин), Джерри Хардин (Глубокая Глотка), Брендан Бисер (Агент Пендрелл), Джон Невилл (Наманикюренный) и др.

    Описание: Индейцы навахо находят раненого Малдера и возвращают его к жизни с помощью мистического ритуала. В это время люди Синдиката преследуют Скалли, чтобы забрать у нее кассету с засекреченной информацией. Вернувшись в штаб-квартиру ФБР, чтобы обратиться за помощью к замдиректора Скиннеру, Дана обнаруживает, что в ее тело вшит металлический имплантат, очевидно вживленный во время ее похищения. Скиннер идет на сделку с Курильщиком: он согласен отдать ему кассету, если Синдикат оставит агентов в покое. В это время наемные убийцы Синдиката Крайчек и Луис Кардинал убивают сестру Даны Скалли — Мелиссу, приняв ее за агента.

    Третий сезон сериала «Секретные материалы» в США выходил на телеканале FOX с 22 сентября 1995 года по 17 мая 1996 года, насчитывая 24 эпизода.


    image image

    Сэмпл: скачать


    Релиз от:

    image by

    Elheym

    Качество: BDRip 1080p (источник: image

    The.X-Files.S03.MULTi.COMPLETE.BLURAY-HDCLUB (thx Volshebnik))

    Контейнер : MKV

    Видео: 1920x1080 at 23.976 fps, [email protected], crf, ~17000 kbps avg

    [TayTO]

    Аудио #01:

    Русский: AC3, 2.0, 48 kHz, ~192 Кбит/с | Профессиональный (многоголосый, закадровый)

    Телеканал ОРТ [Селена Интернейшнл]

    |

    Аудио #02:

    Русский: AC3, 2.0, 48 kHz, ~192 Кбит/с | Профессиональный (двухголосый, закадровый)

    РЕН ТВ

    |

    Аудио #03:

    Русский: AC3, 2.0, 48 kHz, ~256 Кбит/с | Авторский (одноголосый, закадровый)

    Визгунов Сергей [VHS]

    |

    Аудио #03:

    Русский: AC3, 2.0, 48 kHz, ~256 Кбит/с | Авторский (одноголосый, закадровый)

    Визгунов Сергей (+patches 2016) VHS|

    |

    Аудио #04:

    Русский: DTS, 5.1, 48 kHz, ~1509 Кбит/с | Авторский (одноголосый, закадровый)

    Ю. Живов

    |

    Аудио #05:

    Русский: AC3, 2.0, 48 kHz, ~192 Кбит/с | Профессиональный (полное дублирование)

    ТВ3

    |

    Аудио #06:

    Русский: AC3, 2.0, 48 kHz, ~192 Кбит/с | Профессиональный (многоголосый, закадровый)

    Гемини фильм (1, 2, 15, 16, 24)

    |

    Аудио #07:

    Украинский: AC3, 2.0, 48 kHz, ~192 Кбит/с | Профессиональный (двухголосый, закадровый) украинский

    1+1

    |

    Аудио #08:

    Английский: DTS, 5.1, 48 kHz/24-bit, ~1509 Кбит/с | Оригинал |

    Аудио #09:

    Русский: AC3, 2.0, 48 kHz, ~256 Кбит/с | Комментарии,

    Шевчук Андрей (RoxMarty) (16, 20, 24)

    |

    Аудио #10:

    Английский: AC3, 2.0, 48 kHz, ~192 Кбит/с | Commentary (16, 20, 24) |

    Субтитры:

    • .....русские: | .ass.. | полные, lostrator |

    • .....русские: | .srt... | полные, lostrator |

    • .....русские: | .srt... | полные, Tycoon |

    • .....русские: | .ass.. | форсированные, -JokeR- ("печатная машинка") |

    • .....русские: | .srt... | форсированные, ТВ3 |

    • .....русские: | .ass.. | форсированные, lostrator |

    • .....русские: | .srt... | форсированные, lostrator |

    • .....русские: | .srt... | Комментарии, X-Pilot/Samphire (16, 20) |

    • английские: | .srt... | полные |

    • английские: | .srt... | SDH |

    • английские: | .srt... | SDH цветные |

    • английские: | .srt... | Commentary, Libby (16, 20)|

    MediaInfo

    General
    Unique ID : 179463945422128050603027824734541675816 (0x87037FA70B3301F8A4651C76CE1F7D28)
    Complete name : The.X-Files.03x01.The.Blessing.Way.1080p.BluRay.DTS.6xRus.Ukr.Eng.TeamHD-TayTO.mkv
    Format : Matroska
    Format version : Version 4
    File size : 6.66 GiB
    Duration : 44 min 44 s
    Overall bit rate : 21.3 Mb/s
    Movie name : 01: Благословенный путь / The Blessing Way
    Encoded date : UTC 2018-10-01 12:25:05
    Writing application : mkvmerge v8.2.0 ('World of Adventure') 64bit
    Writing library : libebml v1.3.1 + libmatroska v1.4.2
    Cover : Yes
    Attachments : cover.jpg / Hero Light.otf / aOldTyper.ttf / aOldTyperTitulNr.ttf / Arial.ttf / Arial Narrow.TTF / DS VTCorona Cyr.TTF / Iris.ttf / Times New Roman.ttf

    Video
    ID : 1
    Format : AVC
    Format/Info : Advanced Video Codec
    Format profile : [email protected]
    Format settings : CABAC / 4 Ref Frames
    Format settings, CABAC : Yes
    Format settings, RefFrames : 4 frames
    Codec ID : VMPEG4/ISO/AVC
    Duration : 44 min 44 s
    Bit rate : 17.1 Mb/s
    Width : 1 920 pixels
    Height : 1 080 pixels
    Display aspect ratio : 16:9
    Frame rate mode : Constant
    Frame rate : 23.976 (24000/1001) FPS
    Color space : YUV
    Chroma subsampling : 4:2:0
    Bit depth : 8 bits
    Scan type : Progressive
    Bits/(Pixel*Frame) : 0.343
    Stream size : 5.33 GiB (80%)
    Title : The X-Files Season 3 BDRip 1080p - Release for TeamHD [TayTO]
    Writing library : x264 core 155 r2867+74 66b5600 t
    modCustom2 [[email protected] X8664]
    Encoding settings : cabac=1 / ref=4 / deblock=1:-3:-3 / analyse=0x3:0x133 / me=umh / subme=11 / psy=1 / fade
    compensate=0.00 / psyrd=1.17:0.00 / mixedref=1 / merange=32 / chromame=1 / trellis=2 / 8x8dct=1 / cqm=0 / deadzone=21,11 / fastpskip=0 / chromaqpoffset=-2 / threads=6 / lookaheadthreads=1 / slicedthreads=0 / nr=0 / decimate=0 / interlaced=0 / bluraycompat=0 / constrainedintra=0 / fgo=0 / bframes=10 / bpyramid=2 / badapt=2 / bbias=0 / direct=3 / weightb=1 / opengop=0 / weightp=2 / keyint=240 / keyintmin=23 / scenecut=40 / intrarefresh=0 / rclookahead=60 / rc=crf / mbtree=0 / crf=19.8000 / qcomp=0.65 / qpmin=0:0:0 / qpmax=69:69:69 / qpstep=4 / vbvmaxrate=62500 / vbvbufsize=78125 / crfmax=0.0 / nalhrd=none / filler=0 / ipratio=1.30 / pbratio=1.20 / aq=3:0.85 / aq-sensitivity=10.00 / aq-factor=1.00:1.00:1.00 / aq2=0 / aq3=0
    Language : English
    Default : Yes
    Forced : Yes
    Color range : Limited
    Color primaries : BT.709
    Transfer characteristics : BT.709
    Matrix coefficients : BT.709

    Audio #1
    ID : 2
    Format : AC-3
    Format/Info : Audio Coding 3
    Commercial name : Dolby Digital
    Codec ID : A_AC3
    Duration : 44 min 44 s
    Bit rate mode : Constant
    Bit rate : 192 kb/s
    Channel(s) : 2 channels
    Channel layout : L R
    Sampling rate : 48.0 kHz
    Frame rate : 31.250 FPS (1536 SPF)
    Bit depth : 16 bits
    Compression mode : Lossy
    Stream size : 61.4 MiB (1%)
    Title : AC3 2.0 @ 192 kbps - MVO, ORT
    Language : Russian
    Service kind : Complete Main
    Default : No
    Forced : No

    Audio #2
    ID : 3
    Format : AC-3
    Format/Info : Audio Coding 3
    Commercial name : Dolby Digital
    Codec ID : A_AC3
    Duration : 44 min 44 s
    Bit rate mode : Constant
    Bit rate : 192 kb/s
    Channel(s) : 2 channels
    Channel layout : L R
    Sampling rate : 48.0 kHz
    Frame rate : 31.250 FPS (1536 SPF)
    Bit depth : 16 bits
    Compression mode : Lossy
    Stream size : 61.4 MiB (1%)
    Title : AC3 2.0 @ 192 kbps - DVO, Ren-TV
    Language : Russian
    Service kind : Complete Main
    Default : No
    Forced : No

    Audio #3
    ID : 4
    Format : AC-3
    Format/Info : Audio Coding 3
    Commercial name : Dolby Digital
    Codec ID : A_AC3
    Duration : 44 min 44 s
    Bit rate mode : Constant
    Bit rate : 256 kb/s
    Channel(s) : 2 channels
    Channel layout : L R
    Sampling rate : 48.0 kHz
    Frame rate : 31.250 FPS (1536 SPF)
    Bit depth : 16 bits
    Compression mode : Lossy
    Stream size : 81.9 MiB (1%)
    Title : AC3 2.0 @ 256 kbps - VO, Vizgunov [VHS]
    Language : Russian
    Service kind : Complete Main
    Default : No
    Forced : No

    Audio #4
    ID : 5
    Format : DTS
    Format/Info : Digital Theater Systems
    Codec ID : A_DTS
    Duration : 44 min 44 s
    Bit rate mode : Constant
    Bit rate : 1 509 kb/s
    Channel(s) : 6 channels
    Channel layout : C L R Ls Rs LFE
    Sampling rate : 48.0 kHz
    Frame rate : 93.750 FPS (512 SPF)
    Bit depth : 16 bits
    Compression mode : Lossy
    Stream size : 483 MiB (7%)
    Title : DTS 5.1 @ 1509 kbps - VO, Zhivov
    Language : Russian
    Default : No
    Forced : No

    Audio #5
    ID : 6
    Format : AC-3
    Format/Info : Audio Coding 3
    Commercial name : Dolby Digital
    Codec ID : A_AC3
    Duration : 44 min 44 s
    Bit rate mode : Constant
    Bit rate : 192 kb/s
    Channel(s) : 2 channels
    Channel layout : L R
    Sampling rate : 48.0 kHz
    Frame rate : 31.250 FPS (1536 SPF)
    Bit depth : 16 bits
    Compression mode : Lossy
    Stream size : 61.4 MiB (1%)
    Title : AC3 2.0 @ 192 kbps - Dub, TV3
    Language : Russian
    Service kind : Complete Main
    Default : No
    Forced : No

    Audio #6
    ID : 7
    Format : AC-3
    Format/Info : Audio Coding 3
    Commercial name : Dolby Digital
    Codec ID : A_AC3
    Duration : 44 min 44 s
    Bit rate mode : Constant
    Bit rate : 192 kb/s
    Channel(s) : 2 channels
    Channel layout : L R
    Sampling rate : 48.0 kHz
    Frame rate : 31.250 FPS (1536 SPF)
    Bit depth : 16 bits
    Compression mode : Lossy
    Stream size : 61.4 MiB (1%)
    Title : AC3 2.0 @ 192 kbps - MVO, Gemini
    Language : Russian
    Service kind : Complete Main
    Default : No
    Forced : No

    Audio #7
    ID : 8
    Format : AC-3
    Format/Info : Audio Coding 3
    Commercial name : Dolby Digital
    Codec ID : A_AC3
    Duration : 44 min 44 s
    Bit rate mode : Constant
    Bit rate : 192 kb/s
    Channel(s) : 2 channels
    Channel layout : L R
    Sampling rate : 48.0 kHz
    Frame rate : 31.250 FPS (1536 SPF)
    Bit depth : 16 bits
    Compression mode : Lossy
    Stream size : 61.4 MiB (1%)
    Title : AC3 2.0 @ 192 kbps - DVO, 1+1
    Language : Ukrainian
    Service kind : Complete Main
    Default : No
    Forced : No

    Audio #8
    ID : 9
    Format : DTS
    Format/Info : Digital Theater Systems
    Codec ID : A_DTS
    Duration : 44 min 44 s
    Bit rate mode : Constant
    Bit rate : 1 509 kb/s
    Channel(s) : 6 channels
    Channel layout : C L R Ls Rs LFE
    Sampling rate : 48.0 kHz
    Frame rate : 93.750 FPS (512 SPF)
    Bit depth : 24 bits
    Compression mode : Lossy
    Stream size : 483 MiB (7%)
    Title : DTS 5.1 @ 1509 kbps - Original
    Language : English
    Default : No
    Forced : No

    Text #1
    ID : 10
    Format : ASS
    Codec ID : S_TEXT/ASS
    Codec ID/Info : Advanced Sub Station Alpha
    Duration : 43 min 55 s
    Bit rate : 223 b/s
    Count of elements : 656
    Compression mode : Lossless
    Stream size : 71.8 KiB (0%)
    Title : Full, lostrator [animated]
    Language : Russian
    Default : No
    Forced : No

    Text #2
    ID : 11
    Format : UTF-8
    Codec ID : S_TEXT/UTF8
    Codec ID/Info : UTF-8 Plain Text
    Duration : 43 min 59 s
    Bit rate : 106 b/s
    Count of elements : 488
    Stream size : 34.4 KiB (0%)
    Title : Full, lostrator
    Language : Russian
    Default : No
    Forced : No

    Text #3
    ID : 12
    Format : ASS
    Codec ID : S_TEXT/ASS
    Codec ID/Info : Advanced Sub Station Alpha
    Duration : 41 min 41 s
    Bit rate : 78 b/s
    Count of elements : 161
    Compression mode : Lossless
    Stream size : 23.8 KiB (0%)
    Title : Forced, -JokeR- [animated]
    Language : Russian
    Default : Yes
    Forced : Yes

    Text #4
    ID : 13
    Format : UTF-8
    Codec ID : S_TEXT/UTF8
    Codec ID/Info : UTF-8 Plain Text
    Duration : 41 min 41 s
    Bit rate : 2 b/s
    Count of elements : 11
    Stream size : 768 Bytes (0%)
    Title : Forced, TV3
    Language : Russian
    Default : No
    Forced : No

    Text #5
    ID : 14
    Format : ASS
    Codec ID : S_TEXT/ASS
    Codec ID/Info : Advanced Sub Station Alpha
    Duration : 41 min 0 s
    Bit rate : 85 b/s
    Count of elements : 183
    Compression mode : Lossless
    Stream size : 25.8 KiB (0%)
    Title : Forced, lostrator [animated]
    Language : Russian
    Default : No
    Forced : No

    Text #6
    ID : 15
    Format : UTF-8
    Codec ID : S_TEXT/UTF8
    Codec ID/Info : UTF-8 Plain Text
    Duration : 41 min 0 s
    Bit rate : 1 b/s
    Count of elements : 8
    Stream size : 545 Bytes (0%)
    Title : Forced, lostrator
    Language : Russian
    Default : No
    Forced : No

    Text #7
    ID : 16
    Format : UTF-8
    Codec ID : S_TEXT/UTF8
    Codec ID/Info : UTF-8 Plain Text
    Duration : 44 min 33 s
    Bit rate : 62 b/s
    Count of elements : 482
    Stream size : 20.3 KiB (0%)
    Title : Full
    Language : English
    Default : No
    Forced : No

    Text #8
    ID : 17
    Format : UTF-8
    Codec ID : S_TEXT/UTF8
    Codec ID/Info : UTF-8 Plain Text
    Duration : 44 min 33 s
    Bit rate : 63 b/s
    Count of elements : 501
    Stream size : 20.7 KiB (0%)
    Title : SDH
    Language : English
    Default : No
    Forced : No

    Text #9
    ID : 18
    Format : UTF-8
    Codec ID : S_TEXT/UTF8
    Codec ID/Info : UTF-8 Plain Text
    Duration : 44 min 33 s
    Bit rate : 65 b/s
    Count of elements : 501
    Stream size : 21.4 KiB (0%)
    Title : SDH Colored
    Language : English
    Default : No
    Forced : No

    Menu
    00:00:00.000 : en:00:00:00.000
    00:02:13.592 : en:00:02:13.592
    00:02:59.137 : en:00:02:59.137
    00:08:19.207 : en:00:08:19.207
    00:11:33.651 : en:00:11:33.651
    00:13:17.130 : en:00:13:17.130
    00:18:06.210 : en:00:18:06.210
    00:21:41.467 : en:00:21:41.467
    00:23:23.652 : en:00:23:23.652
    00:24:19.625 : en:00:24:19.625
    00:29:30.060 : en:00:29:30.060
    00:31:08.283 : en:00:31:08.283
    00:36:19.969 : en:00:36:19.969
    00:42:20.872 : en:00:42:20.872
    00:44:01.222 : en:00:44:01.222

    x264 log

    x264 [info]: frame I:380 Avg QP:16.90 size:144014
    x264 [info]: frame P:13057 Avg QP:17.99 size:112312
    x264 [info]: frame B:50925 Avg QP:18.99 size: 82601
    x264 [info]: consecutive B-frames: 1.5% 1.3% 9.3% 11.1% 13.6% 54.1% 4.9% 0.9% 1.0% 0.9% 1.5%

    Скриншоты

    imageimage
    imageimage
    imageimage
    imageimage
    imageimage
    imageimage

    Описание серий

    https://ru.wikipedia.org/wiki/Секретныематериалы(сезон_3))

    Цитата:

    image

    • Сохранены оригинальные главы как на Blu-ray.

    БЛАГОДАРНОСТИ :

    • За основу BD-раздачи :

    Volshebn1k и DosTaraz, спонсоры: bunker, gregsam, RAUL, Notsaint, chicago, VSonic, Andreyinc, AntiPro, beincanada, zvukovik, aladdin911, tool9, xmods, Baxxter, uvv802, Bellerofont, Sini, Saparow, batista, anikin, F13, vitalaleks, supermart, gelom, dasada, igorlit, Juve, ofrolov, volkovei, masterlee, foxlight, DParfenov, Unequipp, arta8, foxGmalder, tambov68, miggi, Grey73, Anton111, mcalavera, andreyka48, Spock1251, GarfieldX, insan, MaceWindow, Dervish, BSAq, versachik, userhdclub, bpoulb, plyusov, shuller, UltraHD, genn, John05, snafu, kandid, Strana29, gazovik1, Diogen, kamaz, everest, boltik09, daikan, AlexxK, goriathid, Denver29, pvn1024, Wakko, cachemax, Abracad, dansid, kirkavenger, Bodaibo, gtchesla, 3deon, sym2305, xXZombieXx, AlexNever, lib72, V1adimirS, olezhko, WizarDSaNa, Sliptip, sergfox, maddog89, gnik385, irrlicht, Petrucho, Black_Russian, sum, idkfa, Amor7, g900, ia772, RuAzak, Эрнст, DiBas

    • За дорожки с переводами Сергея Визгунова

    : MarvelGirl, Партизан, soulstorm, серый75, qlex, ALEKS KV, Socrat, Real Bad MF, Fikaloid, ripak22mee, 21Sepsis, Raptorio Rio, dynam1te, alex3317, Offizier, Юрий Сербин

    • За эксклюзивный спец. заказ доперевода Сергеем Визгуновым пропущенных фрагментов на VHS: foxlight

    • За спонсированный выкуп частной коллекции видеокассет с переводом ОРТ: DenisLp, soulstorm, ka81, tolya21, dangv, RoxMarty , а также: humanbean, Rezhisser78, Fikaloid, Samphire, 52246, ALEKS KV, lumoder, 62507730

    • За дорожки РЕН-ТВ: Eldar1982, RoxMarty, dangv, Samphire

    • За дорожки ТВ3: Justin_Quayle, sanchez2011, PaFos-DJ

    • За украинские дорожки: ka81, Jonas Hanway, LonerD, Romario_O, imonko, RB26DETT, fox-butch

    • За помощь или перевод дополнительных материалов: dreamingirl, Piper Maru, Trinity, Юрий Сербин, Сергей Визгунов, Agent Leigh Scout, Власов Андрей, X-Pilot, hitrost0, HappyChena, thexfiles.ru, Sergio Conceisao, Алёна Шелобаева, Юрий Родионов (Dragonv1), Александр Ис, odrey, frenky bauer, Samphire, rutenjou, RoxMarty

    • За озвучку дополнительных материалов: Jimmy J. & Jorel, RoxMarty

    • За работу над субтитрами к сериалу: lostrator, -JokeR-

    • За огромную работу (переработку, синхронизацию...) с дорожками ОРТ, РЕН-ТВ, ТВ3, Гемини-фильм, 1+1: ALEKS KV

    Отличия данной раздачи от раздачи сериала на hdclub в блюрей дисках.

    В отличие от неё, здесь: √ присутствует перевод и озвучка Гемини-Фильм. √ дорожка ОРТ в 24 серии более лучшего качества. √ более полные версии перевода Сергея Визгунова к семи сериям (эксклюзивно

    допереведены Сергеем недостающие в кассетном варианте фрагменты!) √ присутствуют русские субтитры в формате ASS (содержащие в некоторых местах анимацию текста, которой нет в BD-субтитрах) + необходимые шрифты в комплект к каждой серии

    BDRip 1080p: // 1 Сезон // 2 Сезон //


    More at ibit.to
    And ibit.uno
    And ibit.ws

    Reviews

    Comments

    9 months ago

    Огромное спасибо. 4 будет?

    8 months ago

    uncharted866 писал(а): 76182749Огромное спасибо. 4 будет? Сложно сказать. Еще и этот-то не раздал: желающие скачать есть, а так чтобы кто-то смог подключится - один-двое, и то соединение не постоянное. О четвертом пока еще не думал. Появится лишнее место на винте, необходимое для проекта, подумаю.

    5 months ago

    огромное спасибо! потихоньку слижу себе посмотреть)

    Files

    The.X-Files.03x01.The.Blessing.Way.1080p.BluRay.DTS.6xRus.Ukr.Eng.TeamHD-TayTO.mkv 6.7 GB
    The.X-Files.03x02.Paper.Clip.1080p.BluRay.DTS.6xRus.Ukr.Eng.TeamHD-TayTO.mkv 6.9 GB
    The.X-Files.03x03.D.P.O..1080p.BluRay.DTS.5xRus.Ukr.Eng.TeamHD-TayTO.mkv 6.7 GB
    The.X-Files.03x04.Clyde.Bruckman's.Final.Repose.1080p.BluRay.DTS.5xRus.Ukr.Eng.TeamHD-TayTO.mkv 6.7 GB
    The.X-Files.03x05.The.List.1080p.BluRay.DTS.5xRus.Ukr.Eng.TeamHD-TayTO.mkv 6.8 GB
    The.X-Files.03x06.2Shy.1080p.BluRay.DTS.5xRus.Ukr.Eng.TeamHD-TayTO.mkv 6.8 GB
    The.X-Files.03x07.The.Walk.1080p.BluRay.DTS.5xRus.Ukr.Eng.TeamHD-TayTO.mkv 6.8 GB
    The.X-Files.03x08.Oubliette.1080p.BluRay.DTS.5xRus.Ukr.Eng.TeamHD-TayTO.mkv 6.8 GB
    The.X-Files.03x09.Nisei.1080p.BluRay.DTS.5xRus.Ukr.Eng.TeamHD-TayTO.mkv 6.7 GB
    The.X-Files.03x10.731.1080p.BluRay.DTS.5xRus.Ukr.Eng.TeamHD-TayTO.mkv 6.7 GB
    The.X-Files.03x11.Revelations.1080p.BluRay.DTS.5xRus.Ukr.Eng.TeamHD-TayTO.mkv 6.7 GB
    The.X-Files.03x12.War.of.the.Coprophages.1080p.BluRay.DTS.5xRus.Ukr.Eng.TeamHD-TayTO.mkv 6.8 GB
    The.X-Files.03x13.Syzygy.1080p.BluRay.DTS.5xRus.Ukr.Eng.TeamHD-TayTO.mkv 6.7 GB
    The.X-Files.03x14.Grotesque.1080p.BluRay.DTS.5xRus.Ukr.Eng.TeamHD-TayTO.mkv 6.7 GB
    The.X-Files.03x15.Piper.Maru.1080p.BluRay.DTS.6xRus.Ukr.Eng.TeamHD-TayTO.mkv 6.9 GB
    The.X-Files.03x16.Apocrypha.1080p.BluRay.DTS.7xRus.Ukr.2xEng.TeamHD-TayTO.mkv 7.0 GB
    The.X-Files.03x17.Pusher.1080p.BluRay.DTS.5xRus.Ukr.Eng.TeamHD-TayTO.mkv 6.7 GB
    The.X-Files.03x18.Teso.Dos.Bichos.1080p.BluRay.DTS.5xRus.Ukr.Eng.TeamHD-TayTO.mkv 6.7 GB
    The.X-Files.03x19.Hell.Money.1080p.BluRay.DTS.5xRus.Ukr.Eng.TeamHD-TayTO.mkv 6.8 GB
    The.X-Files.03x20.Jose.Chung's.From.Outer.Space.1080p.BluRay.DTS.6xRus.Ukr.2xEng.TeamHD-TayTO.mkv 6.8 GB
    The.X-Files.03x21.Avatar.1080p.BluRay.DTS.5xRus.Ukr.Eng.TeamHD-TayTO.mkv 6.8 GB
    The.X-Files.03x22.Quagmire.1080p.BluRay.DTS.5xRus.Ukr.Eng.TeamHD-TayTO.mkv 6.4 GB
    The.X-Files.03x23.Wetwired.1080p.BluRay.DTS.5xRus.Ukr.Eng.TeamHD-TayTO.mkv 6.6 GB
    The.X-Files.03x24.Talitha.Cumi.1080p.BluRay.DTS.7xRus.Ukr.2xEng.TeamHD-TayTO.mkv 6.9 GB

    Stream

    Downloading Seeding The.X-Files.S03.1080p.BluRay.DTS.5xRus.Ukr.Eng.TeamHD-TayTO from to 0 peers.
    of
    0 b/s / ↗0 b/s