• 4
  • 3
Sponsored Downloadondemand_video
  • The Walking Dead S09E11 Bounty 1080p 5.1 - 2.0 x264 Phun Psyz.mp4
  • 821 MB
  • phunpsyz
  • Walking Dead S09E11 Bounty 1080p x264 Phun Psyz mp4
  • English
  • HD/X264/H264
60%

The Walking Dead: Bounty(2019)

  • 9 11
  • Action & Adventure Drama Sci-Fi & Fantasy
  • The savage group led by Alpha confronts the Hilltop in a harrowing attempt to retrieve her daughter; a supply run for the Kingdom turns into a dangerous quest.

    expand_more
    English

    Description

    www.imdb.com/title/tt8250830/?ref=ttepep11

    The Whisperers, led by Alpha, confronts the Hilltop in a harrowing attempt to retrieve her daughter; A supply run for the Kingdom turns into a dangerous quest.

    Source: CasStudio (Amzn)

    image

    image

    image

    image

    image

    Format                      : MPEG-4

    Format profile              : Base Media / Version 2

    Codec ID                    : mp42 (isom/iso2/avc1/mp41)

    File size                   : 821 MiB

    Duration                    : 41 min 58 s

    Overall bit rate mode       : Variable

    Overall bit rate            : 2 734 kb/s

    Writing application         : HandBrake 1.2.0 2018121700

    Video

    ID                          : 1

    Format                      : AVC

    Format/Info                 : Advanced Video Codec

    Format profile              : [email protected]

    Format settings             : CABAC / 1 Ref Frames

    Format settings, CABAC      : Yes

    Format settings, ReFrames   : 1 frame

    Codec ID                    : avc1

    Codec ID/Info               : Advanced Video Coding

    Duration                    : 41 min 58 s

    Bit rate                    : 2 246 kb/s

    Width                       : 1 920 pixels

    Height                      : 1 080 pixels

    Display aspect ratio        : 16:9

    Frame rate                  : 23.976 (24000/1001) FPS

    Color space                 : YUV

    Chroma subsampling          : 4:2:0

    Bit depth                   : 8 bits

    Scan type                   : Progressive

    Bits/(Pixel*Frame)          : 0.045

    Stream size                 : 674 MiB (82%)

    Writing library             : x264 core 157 r2935 545de2f

    Audio #1

    ID                          : 2

    Format                      : AC-3

    Format/Info                 : Audio Coding 3

    Commercial name             : Dolby Digital

    Codec ID                    : ac-3

    Duration                    : 41 min 58 s

    Bit rate mode               : Constant

    Bit rate                    : 320 kb/s

    Channel(s)                  : 6 channels

    Channel layout              : L R C LFE Ls Rs

    Sampling rate               : 48.0 kHz

    Frame rate                  : 31.250 FPS (1536 SPF)

    Bit depth                   : 16 bits

    Compression mode            : Lossy

    Stream size                 : 96.1 MiB (12%)

    Title                       : Surround

    Language                    : English

    Audio #2

    ID                          : 3

    Format                      : AAC LC

    Format/Info                 : Advanced Audio Codec Low Complexity

    Codec ID                    : mp4a-40-2

    Duration                    : 41 min 58 s

    Bit rate mode               : Constant

    Bit rate                    : 160 kb/s

    Channel(s)                  : 2 channels

    Channel layout              : L R

    Sampling rate               : 48.0 kHz

    Frame rate                  : 46.875 FPS (1024 SPF)

    Compression mode            : Lossy

    Stream size                 : 48.1 MiB (6%)

    Title                       : Stereo

    Language                    : English

    Text 

    Language                    : English

    Default                     : Yes

    Forced                      : No

    Language                    : English

    Default                     : No

    Forced                      : No


    More at ibit.to
    And ibit.uno
    And ibit.ws

    Reviews

    Not bad for a horror/drama. If you're obsessed with zombie lore and the idea of watching the long-term effects spanning years at a time on an entire cast of characters, then this show is for you. There are a lot of scary parts with zombies eating and the gore and visual effects are award winning, but the show is mostly how people get along with each other during an apocalyptic setting and how they rebuild civilization or just live moment to moment.

    Zombie stories and fighting zombies always meant something.Suspans,thriller,horror scenes are exactly what these movies needs.So enjoy watching this!😀

    Seasons 1 to 4 were great. It's all downhil from there on - because - you guessed it - diversity and political corectness. In a zombie movie! HAH! Don't watch this.

    _The Walking Dead_ is one of those shows you just can't help but love! A terrifying story of human survival in an apocalyptic world. The show deals with love, loss, zombies (called 'walkers' on the show), death, destruction and zombies! Andrew Lincoln, Norman Reedus, Melissa McBride and Lauren Cohan are amongst the star studded cast who deliver **OUTSTANDING** performances in every episode. _The Walking Dead_ is consistently thrilling and emotionally resonant, with solid character development and enough blood-splattering gore to satisfy anyone! The comic book counterpart has a big influence on the show, so fans of the comic love it too. Each season gives enough compelling character moments to reward longtime fans, while maintaining the back-breaking tension and suspense that keeps audiences watching again and again. _The Walking Dead_ puts an intelligent spin on the overcrowded zombie subgenre, and each season demonstrates why it's one of the best horror shows on television.

    The walking Dead is in once sense a metaphor for whats happened to this once great show. The originality of the first few seasons has gradually given way to a repetitiousness that tells me the show might still be shuffling along but its long since dead. The departure of Andrew Lincoln was a sign that things had come full circle and I had thought they would wind it up which, in my view, would have been the sensible thing to do. Still watching but only because I want to see where it ends. If indeed it ends. Moderately watchable. 6/10 from me.

    unique! perfect show, and more if you focus on the psycologie and sociologie side! in constant evoluion... even if after season 4 or 6 we can see deterioration with the quality and building storyline; we can enjoy a clear amelioration for the best in the 8th season opening our mind to a new vision of the series ! it"s a free adaptation from a popular american comic! and it"s a pleasure to see this worl in black mirors ;)

    Comments

    Files

    The Walking Dead S09E11 Bounty 1080p 5.1 - 2.0 x264 Phun Psyz.mp4 821 MB
    The Walking Dead S09E11 Bounty 1080p 5.1 2.0 x264 Phun Psyz.mp4 821 MB

    Stream

    Downloading Seeding The Walking Dead S09E11 Bounty 1080p 5.1 - 2.0 x264 Phun Psyz.mp4 from to 0 peers.
    of
    0 b/s / ↗0 b/s