• 6
  • 3
  • 1,218
  • done
Sponsored Downloadondemand_video
71%

The Walking Dead: A New Beginning(2018)

  • 9 1
  • Action & Adventure Drama Sci-Fi & Fantasy
  • Rick and his group make a risky run into Washington, D.C. to search for artifacts they will need to build the civilization he and Carl envisioned.

    expand_more
    English

    Description

    image

    image
    image
    image
    image

    image

    Media Information


    ** Media Information **


    Code:

    __ General
    Format                                   : Matroska

    Format version                           : Version 4 / Version 2

    File size                                : 593 MiB

    Duration                                 : 58 min 34 s

    Overall bit rate                         : 1 415 kb/s

    Movie name                               : The Walking Dead 09x01 (A New Beginning) - release by messafan for CasStudio

    Encoded date                             : UTC 2018-10-09 11:33:02

    Writing application                      : mkvmerge v24.0.0 ('Beyond The Pale') 64-bit

    Writing library                          : libebml v1.3.6 + libmatroska v1.4.9

    Writing frontend                         : StaxRip v1.8.2.0

    Video
    ID                                       : 1

    Format                                   : HEVC

    Format/Info                              : High Efficiency Video Coding

    Format profile                           : Main [email protected]@Main

    Codec ID                                 : V_MPEGH/ISO/HEVC

    Duration                                 : 58 min 34 s

    Bit rate                                 : 1 198 kb/s

    Width                                    : 1 920 pixels

    Height                                   : 1 080 pixels

    Display aspect ratio                     : 16:9

    Frame rate mode                          : Constant

    Frame rate                               : 23.976 (24000/1001) FPS

    Color space                              : YUV

    Chroma subsampling                       : 4:2:0

    Bit depth                                : 10 bits

    Bits/(Pixel*Frame)                       : 0.024

    Stream size                              : 502 MiB (85%)

    Writing library                          : x265 2.8+19-bcdc610cf5f0:[Windows][MSVC 1914][64 bit] 10bit

    Encoding settings                        : cpuid=1111039 / frame-threads=3 / numa-pools=8 / wpp / no-pmode / no-pme / no-psnr / ssim / log-level=2 / input-csp=1 / input-res=1920x1080 / interlace=0 / total-frames=84257 / level-idc=0 / high-tier=1 / uhd-bd=0 / ref=4 / no-allow-non-conformance / no-repeat-headers / annexb / no-aud / no-hrd / info / hash=0 / no-temporal-layers / open-gop / min-keyint=23 / keyint=250 / gop-lookahead=0 / bframes=4 / b-adapt=2 / b-pyramid / bframe-bias=0 / rc-lookahead=80 / lookahead-slices=4 / scenecut=40 / radl=0 / no-intra-refresh / ctu=64 / min-cu-size=8 / no-rect / no-amp / max-tu-size=32 / tu-inter-depth=1 / tu-intra-depth=1 / limit-tu=0 / rdoq-level=2 / dynamic-rd=0.00 / ssim-rd / signhide / no-tskip / nr-intra=0 / nr-inter=0 / no-constrained-intra / strong-intra-smoothing / max-merge=3 / limit-refs=3 / limit-modes / me=3 / subme=3 / merange=57 / temporal-mvp / weightp / no-weightb / no-analyze-src-pics / deblock=0:0 / sao / no-sao-non-deblock / rd=4 / no-early-skip / rskip / no-fast-intra / no-tskip-fast / no-cu-lossless / no-b-intra / no-splitrd-skip / rdpenalty=0 / psy-rd=0.00 / psy-rdoq=1.00 / no-rd-refine / no-lossless / cbqpoffs=0 / crqpoffs=0 / rc=abr / bitrate=1200 / qcomp=0.60 / qpstep=4 / stats-write=0 / stats-read=2 / cplxblur=20.0 / qblur=0.5 / vbv-maxrate=4500 / vbv-bufsize=9000 / vbv-init=0.9 / ipratio=1.40 / pbratio=1.30 / aq-mode=2 / aq-strength=0.80 / cutree / zone-count=0 / no-strict-cbr / qg-size=32 / no-rc-grain / qpmax=69 / qpmin=0 / no-const-vbv / sar=0 / overscan=0 / videoformat=5 / range=0 / colorprim=2 / transfer=2 / colormatrix=2 / chromaloc=0 / display-window=0 / max-cll=0,0 / min-luma=0 / max-luma=1023 / log2-max-poc-lsb=8 / vui-timing-info / vui-hrd-info / slices=1 / no-opt-qp-pps / no-opt-ref-list-length-pps / multi-pass-opt-rps / scenecut-bias=0.05 / no-opt-cu-delta-qp / no-aq-motion / no-hdr / no-hdr-opt / no-dhdr10-opt / no-idr-recovery-sei / analysis-reuse-level=10 / scale-factor=0 / refine-intra=0 / refine-inter=0 / refine-mv=0 / limit-sao / ctu-info=0 / no-lowpass-dct / refine-mv-type=0 / copy-pic=1 / max-ausize-factor=1.0 / no-dynamic-refine / no-single-sei

    Default                                  : Yes

    Forced                                   : No

    Audio
    ID                                       : 2

    Format                                   : AAC

    Format/Info                              : Advanced Audio Codec

    Format profile                           : HE-AAC / LC

    Codec ID                                 : A_AAC

    Duration                                 : 58 min 34 s

    Bit rate                                 : 215 kb/s

    Channel(s)                               : 6 channels

    Channel positions                        : Front: L C R, Side: L R, LFE

    Sampling rate                            : 48.0 kHz / 24.0 kHz

    Frame rate                               : 23.438 FPS (1024 spf)

    Compression mode                         : Lossy

    Delay relative to video                  : 31 ms

    Stream size                              : 90.1 MiB (15%)

    Language                                 : English

    Default                                  : No

    Forced                                   : No

    Subtitle #1
    ID                                       : 3

    Format                                   : UTF-8

    Codec ID                                 : S_TEXT/UTF8

    Codec ID/Info                            : UTF-8 Plain Text

    Duration                                 : 58 min 22 s

    Bit rate                                 : 45 b/s

    Count of elements                        : 803

    Stream size                              : 19.3 KiB (0%)

    Language                                 : English

    Default                                  : No

    Forced                                   : No

    Subtitle #2
    ID                                       : 4

    Format                                   : UTF-8

    Codec ID                                 : S_TEXT/UTF8

    Codec ID/Info                            : UTF-8 Plain Text

    Duration                                 : 58 min 23 s

    Bit rate                                 : 54 b/s

    Count of elements                        : 1048

    Stream size                              : 23.4 KiB (0%)

    Language                                 : English

    Default                                  : No

    Forced                                   : No

    __


    ** Source Information **


    Code:

    __ Release:
    The.Walking.Dead.S09E01.A.New.Beginning.1080p.AMZN.WEB-DL.DD+5.1.H.264-CasStudio.mkv (5.89 GBs)

    __

    We have no issue with individuals posting or re-uploading our torrents on a platform we aren't on. However, if this is something you'd like to do, please do so in a 'as-is' format. We ask that you do not create a new torrent, include all descriptions you see above including the UTR logo, tags, notes and screenshots. If you'd like to become a permanent poster on a website we don't post to, feel free to get in contact with a UniTeam member.


    More at ibit.to
    And ibit.uno
    And ibit.ws

    Reviews

    Not bad for a horror/drama. If you're obsessed with zombie lore and the idea of watching the long-term effects spanning years at a time on an entire cast of characters, then this show is for you. There are a lot of scary parts with zombies eating and the gore and visual effects are award winning, but the show is mostly how people get along with each other during an apocalyptic setting and how they rebuild civilization or just live moment to moment.

    Zombie stories and fighting zombies always meant something.Suspans,thriller,horror scenes are exactly what these movies needs.So enjoy watching this!😀

    Seasons 1 to 4 were great. It's all downhil from there on - because - you guessed it - diversity and political corectness. In a zombie movie! HAH! Don't watch this.

    _The Walking Dead_ is one of those shows you just can't help but love! A terrifying story of human survival in an apocalyptic world. The show deals with love, loss, zombies (called 'walkers' on the show), death, destruction and zombies! Andrew Lincoln, Norman Reedus, Melissa McBride and Lauren Cohan are amongst the star studded cast who deliver **OUTSTANDING** performances in every episode. _The Walking Dead_ is consistently thrilling and emotionally resonant, with solid character development and enough blood-splattering gore to satisfy anyone! The comic book counterpart has a big influence on the show, so fans of the comic love it too. Each season gives enough compelling character moments to reward longtime fans, while maintaining the back-breaking tension and suspense that keeps audiences watching again and again. _The Walking Dead_ puts an intelligent spin on the overcrowded zombie subgenre, and each season demonstrates why it's one of the best horror shows on television.

    The walking Dead is in once sense a metaphor for whats happened to this once great show. The originality of the first few seasons has gradually given way to a repetitiousness that tells me the show might still be shuffling along but its long since dead. The departure of Andrew Lincoln was a sign that things had come full circle and I had thought they would wind it up which, in my view, would have been the sensible thing to do. Still watching but only because I want to see where it ends. If indeed it ends. Moderately watchable. 6/10 from me.

    Comments

    8 months ago

    Surprise.

    8 months ago

    :) :) :)

    7 months ago

    Thanks, Joy!

    Files

    The Walking Dead S09E01 A New Beginning (1080p x265 10bit FS85 Joy).mkv 593 MB
    The Walking Dead S09E01 A New Beginning (1080p x265 10bit FS85 Joy).mkv 593 MB

    Stream

    Downloading Seeding The Walking Dead S09E01 A New Beginning (1080p x265 10bit FS85 Joy).mkv from to 0 peers.
    of
    0 b/s / ↗0 b/s