• 1
  • 0
  • done
Sponsored Downloadondemand_video
  • The Walking Dead S09 (2018) 720p WEBRip (Gears Media)
  • 19 GB
  • T_A_R
  • Walking Dead
  • Зарубежные сери

Description

Ходячие мертвецы / The Walking Dead

image

Год выпуска: 2018

Страна: США

Жанр: Ужасы, триллер, драма

Продолжительность: ~43 мин.

Перевод : Профессиональный (двухголосый закадровый) Gears Media

Режиссёр: Эрнест Р. Дикерсон, Грег Никотеро, Гай Ферленд

В ролях: Эндрю Линкольн, Скотт Уилсон, Данай Джекесай Гурира, Дэвид Моррисси, Стивен Юн, Лорен Коэн, Чендлер Риггз, Норман Ридус, Мелисса Сюзанн МакБрайд, Эмили Кинни, Чад Коулмэн, Сонеква Мартин

Описание: Сериал рассказывает историю жизни семьи шерифа после того, как «зомби» — эпидемия апокалипсических масштабов захлестнула земной шар. Шериф Рик Грайм путешествует со своей семьей и небольшой группой выживших в поисках безопасного места для жизни. Но постоянный страх смерти каждый день приносит тяжелые потери, заставляя героев почувствовать глубины человеческой жестокости.

Ссылка на предыдущие и альтернативные раздачи : http://rutracker.org/forum/tracker.php?g=foreign_serials&nm=The%20Walking%20Dead

Сэмпл : http://multi-up.com/1213337

Качество : WEBRip 720p

Формат : MKV

Видео : X264, 1280x716 at 23.976 fps, ~4000 kbps avg

Аудио1: Russian, AC3, 48 kHz, 2 ch, 384 kbps

Аудио2: English, EAC3, 48 kHz, 6 ch, 640 kbps

Субтитры : нет

Реклама : аудио (два раза, в начале и конце, по 12 сек.)

MediaInfo

Format : Matroska
Format version : Version 4
File size : 2.03 GiB
Duration : 58 min 34 s
Overall bit rate : 4 972 kb/s
Encoded date : UTC 2018-10-30 17:14:17
Writing application : mkvmerge v23.0.0 ('The Bride Said No') 64-bit
Writing library : libebml v1.3.6 + libmatroska v1.4.9

Video
ID : 1
Format : AVC
Format/Info : Advanced Video Codec
Format profile : High@L3.1
Format settings : CABAC / 4 Ref Frames
Format settings, CABAC : Yes
Format settings, ReFrames : 4 frames
Codec ID : VMPEG4/ISO/AVC
Duration : 58 min 34 s
Bit rate : 4 000 kb/s
Width : 1 280 pixels
Height : 720 pixels
Display aspect ratio : 16:9
Frame rate mode : Constant
Frame rate : 23.976 (23976/1000) FPS
Color space : YUV
Chroma subsampling : 4:2:0
Bit depth : 8 bits
Scan type : Progressive
Bits/(Pixel*Frame) : 0.181
Stream size : 1.61 GiB (79%)
Writing library : x264 core 148
Encoding settings : cabac=1 / ref=3 / deblock=1:0:0 / analyse=0x3:0x113 / me=hex / subme=7 / psy=1 / psy
rd=1.00:0.00 / mixedref=1 / merange=16 / chromame=1 / trellis=1 / 8x8dct=1 / cqm=0 / deadzone=21,11 / fastpskip=1 / chromaqpoffset=-2 / threads=22 / lookaheadthreads=3 / slicedthreads=0 / nr=0 / decimate=1 / interlaced=0 / bluraycompat=0 / constrainedintra=0 / bframes=3 / bpyramid=2 / badapt=1 / bbias=0 / direct=1 / weightb=1 / opengop=0 / weightp=2 / keyint=250 / keyintmin=23 / scenecut=40 / intrarefresh=0 / rclookahead=40 / rc=abr / mbtree=1 / bitrate=4000 / ratetol=1.0 / qcomp=0.60 / qpmin=0 / qpmax=69 / qpstep=4 / ipratio=1.40 / aq=1:1.00
Default : Yes
Forced : No

Audio #1
ID : 2
Format : AC-3
Format/Info : Audio Coding 3
Commercial name : Dolby Digital
Codec ID : A_AC3
Duration : 58 min 34 s
Bit rate mode : Constant
Bit rate : 384 kb/s
Channel(s) : 2 channels
Channel layout : L R
Sampling rate : 48.0 kHz
Frame rate : 31.250 FPS (1536 SPF)
Bit depth : 16 bits
Compression mode : Lossy
Stream size : 161 MiB (8%)
Title : Gears Media
Language : Russian
Service kind : Complete Main
Default : Yes
Forced : Yes

Audio #2
ID : 3
Format : E-AC-3
Format/Info : Enhanced AC-3
Commercial name : Dolby Digital Plus
Codec ID : A_EAC3
Duration : 58 min 34 s
Bit rate mode : Constant
Bit rate : 640 kb/s
Channel(s) : 6 channels
Channel layout : L R C LFE Ls Rs
Sampling rate : 48.0 kHz
Frame rate : 31.250 FPS (1536 SPF)
Compression mode : Lossy
Stream size : 268 MiB (13%)
Title : English
Language : English
Service kind : Complete Main
Default : No
Forced : No

Скриншоты

image image image image

Внимание! Раздача ведётся путём добавления новых серий

Внимание! Раздача ведётся путём добавления новых серий; при каждом добавлении создаётся новый торрент. Чтобы начать докачку новой серии, пользователям необходимо сделать следующее:
(1) остановить скачивание,
(2) удалить старый торрент у себя из клиента (старые серии удалять не надо),
(3) скачать новый торрент и запустить его у себя в клиенте вместо старого, при этом указать клиенту путь в старую папку куда и должно происходить скачивание новых серий.

Ваш клиент при этом должен произвести хеширование (проверку) старой папки (если не производит сам - помогите ему сделать это), и будет докачивать только те серии которых у вас ещё нет. Старые серии при этом не удаляются, а продолжают раздаваться!

Eсли вы уже удалили старые серии, то предотвратить повторную закачку старых серий можно, отжав галочку в соответствующих местах при запуске нового торрента. По возможности, желательно не удалять старые серии как можно дольше чтобы релизёр не столько продолжал раздавать старые серии, а смог сконцентрироваться на новых.


More at ibit.to
And ibit.uno
And ibit.ws

Comments

7 months ago

друзья где сиды?

5 months ago

Как-то странно, новая серия сразу с переводом за два дня (по сути даже три, учитывая часовые пояса) до премьерного показа...

5 months ago

в 9 серии чуваки из группы Slipknot ))))))))))

5 months ago

Качать не рекомендую. Озвучка отстой. Хитрожопые...Сабы не вставляют. Рекламу свою Вы себе в одно место...Подождем немного нормального качества с сабами

5 months ago

Koshkamka писал(а): 76825118Как-то странно, новая серия сразу с переводом за два дня (по сути даже три, учитывая часовые пояса) до премьерного показа... 9 серию слили в сеть неделей ранее премьерного показа.

Files

The Walking Dead S09E12 (2018) 720p WEBRip (Gears Media).mkv 2.1 GB
The Walking Dead S09E01 (2018) 720p WEBRip (Gears Media).mkv 2.0 GB
The Walking Dead S09E11 (2018) 720p WEBRip (Gears Media).mkv 2.0 GB
The Walking Dead S09E06 (2018) 720p WEBRip (Gears Media).mkv 2.0 GB
The Walking Dead S09E02 (2018) 720p WEBRip (Gears Media).mkv 1.6 GB
The Walking Dead S09E03 (2018) 720p WEBRip (Gears Media).mkv 1.6 GB
The Walking Dead S09E08 (2018) 720p WEBRip (Gears Media).mkv 1.6 GB
The Walking Dead S09E07 (2018) 720p WEBRip (Gears Media).mkv 1.6 GB
The Walking Dead S09E05 (2018) 720p WEBRip (Gears Media).mkv 1.5 GB
The Walking Dead S09E04 (2018) 720p WEBRip (Gears Media).mkv 1.5 GB
The Walking Dead S09E10 (2018) 720p WEBRip (Gears Media).mkv 992 MB
The Walking Dead S09E09 (2018) 720p WEBRip (Gears Media).mkv 664 MB

Stream

Downloading Seeding The Walking Dead S09 (2018) 720p WEBRip (Gears Media) from to 0 peers.
of
0 b/s / ↗0 b/s