• 1
  • 0
  • 242
Anonymous Downloadondemand_video
  • The Walk(2015)MPEG-4[DaScubaDude]
  • 1.3 GB
  • dascubadude
  • Walk 2015 MPEG DaScubaDude
  • English
  • Mp4
Warning! Use a VPN When Downloading Torrents!
Your IP Address is ,
Your Internet Provider can see when you download torrents! Hide your IP ADDRESS with a VPN
We strongly recommend hide.me VPN to hide your torrenting. It's FREE!
DOWNLOAD VPN
69%

The Walk (2015)

  • Adventure Drama Thriller
  • The story of French high-wire artist Philippe Petit's attempt to cross the Twin Towers of the World Trade Center in 1974.

    expand_more
    English
  • $35,000,000
  • Description

    http://ia.media-imdb.com/images/M/[email protected]_V1_UX182_CR0,0,182,268_AL_.jpg

    The Walk (2015)

    PG | 2h 3min | Adventure, Biography, Drama | 9 October 2015 (USA)

    In 1974, high-wire artist Philippe Petit recruits a team of people to help him realize his dream: to walk the immense void between the World Trade Center towers.

    Director: Robert Zemeckis

    Writers: Robert Zemeckis (screenplay), Christopher Browne (screenplay) |
    Stars: Joseph Gordon-Levitt, Charlotte Le Bon, Guillaume Baillargeon |

    General

    Complete name : TheWalkTHEWALKTitle1.mp4

    Format : MPEG-4

    Format profile : Base Media

    Codec ID : isom (isom/iso2/avc1/mp41)

    File size : 1.26 GiB

    Duration : 2h 3mn

    Overall bit rate : 1 464 Kbps

    Movie name : THE_WALK

    Genre : Drama

    Writing application : Lavf54.6.100

    Video

    ID : 1

    Format : AVC

    Format/Info : Advanced Video Codec

    Format profile : [email protected]
    Format settings, CABAC : No

    Format settings, ReFrames : 6 frames

    Format settings, GOP : M=1, N=60

    Codec ID : avc1

    Codec ID/Info : Advanced Video Coding

    Duration : 2h 3mn

    Bit rate : 1 194 Kbps

    Width : 720 pixels

    Height : 404 pixels

    Display aspect ratio : 16:9

    Frame rate mode : Constant

    Frame rate : 29.970 (30000/1001) fps

    Color space : YUV

    Chroma subsampling : 4:2:0

    Bit depth : 8 bits

    Scan type : Progressive

    Bits/(Pixel*Frame) : 0.137

    Stream size : 1.03 GiB (82%)

    Audio

    ID : 2

    Format : AAC

    Format/Info : Advanced Audio Codec

    Format profile : LC

    Codec ID : 40

    Duration : 2h 3mn

    Bit rate mode : Constant

    Bit rate : 265 Kbps

    Channel(s) : 2 channels

    Channel(s)_Original : 6 channels

    Channel positions : Front: L C R, Side: L R, LFE

    Sampling rate : 44.1 KHz

    Frame rate : 43.066 fps (1024 spf)

    Compression mode : Lossy

    Stream size : 231 MiB (18%)

    Default : Yes

    Alternate group : 1


    More at ibit.to
    And ibit.uno
    And ibit.ws

    Reviews

    Comments

    Files

    THE_WALK_Title1.mp4 1.3 GB

    Stream

    Downloading Seeding The Walk(2015)MPEG-4[DaScubaDude] from to 0 peers.
    of
    0 b/s / ↗0 b/s