• 0
  • 0
Anonymous Downloadondemand_video
  • The Walk 2015 720p WEBRip XviD MP3-FGT
  • 3.0 GB
  • Walk 2015 720p WEBRip XviD MP3 FGT
  • Other
Warning! Use a VPN When Downloading Torrents!
Your IP Address is ,
Your Internet Provider can see when you download torrents! Hide your IP ADDRESS with a VPN
We strongly recommend Trust.Zone VPN to hide your torrenting. It's FREE!
DOWNLOAD VPN
69%

The Walk (2015)

  • Adventure Drama Thriller
  • The story of French high-wire artist Philippe Petit's attempt to cross the Twin Towers of the World Trade Center in 1974.

    expand_more
    English
  • $35,000,000
  • Description

    https://rarbg.to/

    image
    image
    image
    image
    image
    image

    [mediainfo]
    Video
    ID : 0
    Format : MPEG-4 Visual
    Format profile : [email protected]
    Format settings, BVOP : No
    Format settings, QPel : No
    Format settings, GMC : No warppoints
    Format settings, Matrix : Default (H.263)
    Codec ID : XVID
    Codec ID/Hint : XviD
    Duration : 2h 3mn

    Bit rate : 3 283 Kbps
    Width : 1 280 pixels
    Height : 534 pixels
    Display aspect ratio : 2.40:1

    Frame rate : 29.970 fps
    Color space : YUV
    Chroma subsampling : 4:2:0
    Bit depth : 8 bits
    Scan type : Progressive
    Compression mode : Lossy
    Bits/(Pixel*Frame) : 0.160
    Stream size : 2.82 GiB (94%)
    Writing library : Lavc56.58.100

    Audio
    ID : 1
    Format : MPEG Audio
    Format version : Version 1
    Format profile : Layer 3
    Mode : Joint stereo
    Codec ID : 55
    Codec ID/Hint : MP3
    Duration : 2h 3mn
    Bit rate mode : Constant
    Bit rate : 192 Kbps
    Channel(s) : 2 channels
    Sampling rate : 48.0 KHz
    Compression mode : Lossy
    Stream size : 169 MiB (5%)

    Alignment : Aligned on interleaves
    Interleave, duration : 24 ms (0.72 video frame)
    Interleave, preload duration : 504 ms
    Writing library : LAME3.99.5

    [/mediainfo]


    More at ibit.to
    And ibit.uno
    And ibit.ws

    Reviews

    Comments

    Files

    The.Walk.2015.720p.WEBRip.XviD.MP3-FGT/RARBG.com.txt 34 B
    The.Walk.2015.720p.WEBRip.XviD.MP3-FGT/The.Walk.2015.720p.WEBRip.XviD.MP3-FGT.avi 3.0 GB
    The.Walk.2015.720p.WEBRip.XviD.MP3-FGT/The.Walk.2015.720p.WEBRip.XviD.MP3-FGT.nfo 3.0 kB

    Stream

    Downloading Seeding The Walk 2015 720p WEBRip XviD MP3-FGT from to 0 peers.
    of
    0 b/s / ↗0 b/s