• 6
  • 9
  • 16
Anonymous Downloadondemand_video
  • The Upside 2019 Movies HD Cam Clean Audio New Source with Sample ☻rDX☻
  • 705 MB
  • nehalpuja
  • Upside 2019 Movies Clean Audio Source Sample Cam New rDX
  • English
  • h.264/x264
Warning! Use a VPN When Downloading Torrents!
Your IP Address is ,
Your Internet Provider can see when you download torrents! Hide your IP ADDRESS with a VPN
We strongly recommend hide.me VPN to hide your torrenting. It's FREE!
DOWNLOAD VPN
71%

The Upside (2019)

  • Comedy Drama
  • Phillip is a wealthy quadriplegic who needs a caretaker to help him with his day-to-day routine in his New York penthouse. He decides to hire Dell, a struggling parolee who's trying to reconnect with his ex and his young son. Despite coming from two different worlds, an unlikely friendship starts to blossom.

    expand_more
    English
  • $37,500,000
  • Description

    The Upside 2019 Movies HD Cam Clean Audio New Source with Sample ☻rDX☻

    ===============================================================================================

    SCREEN SHOTS:

    image

    or

    https://iphonehosting.eu/2018/12/ebay/1.html

    File size : 693 MiB

    Duration : 1 h 54 min

    Overall bit rate mode : Constant

    Overall bit rate : 845 kb/s

    Movie name : The Upside 2019 Movies HD Cam Clean Audio New Source ☻rDX☻

    Video

    ID : 2

    Format : AVC

    Format/Info : Advanced Video Codec

    Format profile : [email protected]
    Format settings, CABAC : Yes

    Format settings, ReFrames : 2 frames

    Format settings, GOP : M=1, N=12

    Codec ID : V_MPEG4/ISO/AVC

    Duration : 1 h 54 min

    Bit rate mode : Constant

    Bit rate : 782 kb/s

    Width : 700 pixels

    Height : 372 pixels

    Display aspect ratio : 1.882

    Frame rate mode : Constant

    Frame rate : 29.970 (30000/1001) FPS

    Color space : YUV

    Chroma subsampling : 4:2:0

    Bit depth : 8 bits

    Scan type : Progressive

    Bits/(Pixel*Frame) : 0.100

    Stream size : 627 MiB (90%)

    Title : ☻rDX☻

    Default : Yes

    Forced : No

    Audio

    ID : 1

    Format : AC-3

    Format/Info : Audio Coding 3

    Mode extension : CM (complete main)

    Format settings, Endianness : Big

    Codec ID : A_AC3

    Duration : 1 h 54 min

    Bit rate mode : Constant

    Bit rate : 64.0 kb/s

    Channel(s) : 2 channels

    Channel positions : Front: L R

    Sampling rate : 44.1 kHz

    Frame rate : 28.711 FPS (1536 spf)

    Bit depth : 16 bits

    Compression mode : Lossy

    Stream size : 52.5 MiB (8%)

    Title : ☻rDX☻

    Default : Yes

    Forced : No

    https://www.imdb.com/title/tt1987680

    image


    More at ibit.to
    And ibit.uno
    And ibit.am
    And ibit.ws

    Reviews

    Comments

    Files

    Sample ~ The Upside 2019 Movies HD Cam Clean Audio New Source ☻rDX☻.mkv 12 MB
    The Upside 2019 Movies HD Cam Clean Audio New Source ☻rDX☻.mkv 693 MB

    Stream

    Downloading Seeding The Upside 2019 Movies HD Cam Clean Audio New Source with Sample ☻rDX☻ from to 0 peers.
    of
    0 b/s / ↗0 b/s