• 1
  • 1
  • done
Anonymous Downloadondemand_video
Warning! Use a VPN When Downloading Torrents!
Your IP Address is ,
Your Internet Provider can see when you download torrents! Hide your IP ADDRESS with a VPN
We strongly recommend hide.me VPN to hide your torrenting. It's FREE!
DOWNLOAD VPN
73%

The Unbearable Lightness of Being (1988)

  • Comedy Romance Drama
  • Successful surgeon Tomas leaves Prague for an operation, meets a young photographer named Tereza, and brings her back with him. Tereza is surprised to learn that Tomas is already having an affair with the bohemian Sabina, but when the Soviet invasion occurs, all three flee to Switzerland. Sabina begins an affair, Tom continues womanizing, and Tereza, disgusted, returns to Czechoslovakia. Realizing his mistake, Tomas decides to chase after her.

    expand_more
    English
  • $17,000,000
  • Description

    The Unbearable Lightness of Being (1988) R | 2h 51min | Drama, Romance | 5 February 1988 (USA) General Complete name : TheUnbearableLightnessUNBEARABLELIGHTBEINGD1Title1.mp4 Format : MPEG-4 Format profile : Base Media Codec ID : isom (isom/iso2/avc1/mp41) File size : 1.06 GiB Duration : 1h 54mn Overall bit rate mode : Variable Overall bit rate : 1 331 Kbps Movie name : UNBEARABLELIGHTBEING_D1 Genre : Drama Writing application : Lavf54.6.100

    Video ID : 1 Format : AVC Format/Info : Advanced Video Codec Format profile : [email protected] Format settings, CABAC : No Format settings, ReFrames : 6 frames Format settings, GOP : M=1, N=60 Codec ID : avc1 Codec ID/Info : Advanced Video Coding Duration : 1h 54mn Bit rate : 1 197 Kbps Width : 720 pixels Height : 404 pixels Display aspect ratio : 16:9 Frame rate mode : Constant Frame rate : 29.970 (30000/1001) fps Color space : YUV Chroma subsampling : 4:2:0 Bit depth : 8 bits Scan type : Progressive Bits/(Pixel*Frame) : 0.137 Stream size : 977 MiB (90%)

    Audio ID : 2 Format : AAC Format/Info : Advanced Audio Codec Format profile : LC Codec ID : 40 Duration : 1h 54mn Bit rate mode : Variable Bit rate : 128 Kbps Maximum bit rate : 134 Kbps Channel(s) : 2 channels Channel positions : Front: L R Sampling rate : 44.1 KHz Frame rate : 43.066 fps (1024 spf) Compression mode : Lossy Stream size : 104 MiB (10%) Default : Yes Alternate group : 1


    More at ibit.to
    And ibit.uno
    And ibit.am
    And ibit.ws

    Reviews

    Comments

    Files

    UNBEARABLE_LIGHT_BEING_D1_Title1.mp4 1.1 GB

    Stream

    Downloading Seeding TheUnbearableLightness from to 0 peers.
    of
    0 b/s / ↗0 b/s