• 0
  • 0
  • done
Anonymous Downloadondemand_video
  • The Supergrass (1985) DVDrip Gavrilov, Ivanov, Eng.avi
  • 1.5 GB
  • arle-kino
  • Supergrass 1985 DVDrip Gavrilov Ivanov Eng avi
  • Зарубежное кино
Warning! Use a VPN When Downloading Torrents!
Your IP Address is ,
Your Internet Provider can see when you download torrents! Hide your IP ADDRESS with a VPN
We strongly recommend Trust.Zone VPN to hide your torrenting. It's FREE!
DOWNLOAD VPN
73%

The Supergrass (1985)

  • Comedy
  • While taking a holiday in the country with his mother, Dennis hits on a scheme to impress a girl so that she'll go away on a trip with him as his girlfriend. Although he fails to gain any interest from the girl, the police take a great interest in his story. From this point on, Dennis digs a deeper hole for himself at every turn

    expand_more
    English

    Description

    Суперстукач / Супертравка / The Supergrass

    image

    Страна : Великобритания image

    Жанр : Комедия, криминал

    Год выпуска : 1985

    Продолжительность : 01:33:47

    Перевод 1 : Авторский одноголосый закадровый -

    А. Гаврилов

    Перевод 2 : Авторский одноголосый закадровый -

    М. Иванов

    Субтитры : нет

    Оригинальная аудиодорожка : английская

    Режиссер :

    Питер Ричардсон / Peter Richardson

    В ролях : Эдриен Эдмондсон, Дженнифер Сондерс, Питер Ричардсон, Робби Колтрейн, Найджел Плэйнер, Кит Аллен, Дон Френч, Дэниэл Пикок, Рональд Аллен, Алексей Сейл.

    Описание : Провинциал Деннис Картер, в тщетных попытках добиться благосклонности своей подружки и желая уговорить её поехать с ним для приятного времяпрепровождения, придумывает довольно хитроумную историю. Его план, хотя и оставляет её совершенно равнодушной, зато привлекает пристальное внимание стражей порядка. С этого момента Деннис всё глубже и глубже оказывается в яме, которую он сам же себе и выкопал...

    image image image

    Доп. информация : Русские дорожки предоставлены budulai-8
    За работу над дорожкой с переводом М. Иванова отдельное спасибо Алекс_011

    Примечание:

    Полная версия вышла только на старых VHS и имела родолжительность 103 мин. На изданных позднее DVD фильм был короче оригинала на 10 минут, причем изъяты были далеко не второстепенные сцены. Рип с VHS по ряду причин оказался непригоден для релиза.

    image image

    Качество видео : DVDRip

    Формат видео : AVI

    Видео : 720x496 (1.45:1), 25 fps, XviD build 50 ~1631 kbps avg, 0.18 bit/pixel

    Аудио 1 : 48 kHz, AC3 Dolby Digital, 2/0 (L,R) ch, ~192 kbps - AVO - Gavrilov

    Аудио 2 : 48 kHz, AC3 Dolby Digital, 2/0 (L,R) ch, ~192 kbps - AVO - Ivanov

    Аудио 3 : 48 kHz, AC3 Dolby Digital, 2/0 (L,R) ch, ~192 kbps - English

    MediaInfo

    General
    Complete name : D:PublicThe Supergrass (1985) DVDrip Gavrilov, Ivanov, Eng.avi
    Format : AVI
    Format/Info : Audio Video Interleave
    File size : 1.46 GiB
    Duration : 1h 33mn
    Overall bit rate : 2 228 Kbps
    Writing application : VirtualDubMod 1.5.10.2 (build 2542/release)
    Writing library : VirtualDubMod build 2542/release

    Video
    ID : 0
    Format : MPEG-4 Visual
    Format profile : Advanced [email protected]
    Format settings, BVOP : 1
    Format settings, QPel : No
    Format settings, GMC : No warppoints
    Format settings, Matrix : Default (MPEG)
    Codec ID : XVID
    Codec ID/Hint : XviD
    Duration : 1h 33mn
    Bit rate : 1 633 Kbps
    Width : 720 pixels
    Height : 496 pixels
    Display aspect ratio : 3:2
    Frame rate : 25.000 fps
    Color space : YUV
    Chroma subsampling : 4:2:0
    Bit depth : 8 bits
    Scan type : Progressive
    Compression mode : Lossy
    Bits/(Pixel*Frame) : 0.183
    Stream size : 1.07 GiB (73%)
    Writing library : XviD 1.2.1 (UTC 2008-12-04)

    Audio #1
    ID : 1
    Format : AC-3
    Format/Info : Audio Coding 3
    Mode extension : CM (complete main)
    Codec ID : 2000
    Duration : 1h 33mn
    Bit rate mode : Constant
    Bit rate : 192 Kbps
    Channel(s) : 2 channels
    Channel positions : Front: L R
    Sampling rate : 48.0 KHz
    Bit depth : 16 bits
    Compression mode : Lossy
    Stream size : 129 MiB (9%)
    Alignment : Split accross interleaves
    Interleave, duration : 40 ms (1.00 video frame)
    Interleave, preload duration : 500 ms
    Title : AVO - Gavrilov

    Audio #2
    ID : 2
    Format : AC-3
    Format/Info : Audio Coding 3
    Mode extension : CM (complete main)
    Codec ID : 2000
    Duration : 1h 33mn
    Bit rate mode : Constant
    Bit rate : 192 Kbps
    Channel(s) : 2 channels
    Channel positions : Front: L R
    Sampling rate : 48.0 KHz
    Bit depth : 16 bits
    Compression mode : Lossy
    Stream size : 129 MiB (9%)
    Alignment : Split accross interleaves
    Interleave, duration : 40 ms (1.00 video frame)
    Interleave, preload duration : 500 ms
    Title : AVO - Ivanov

    Audio #3
    ID : 3
    Format : AC-3
    Format/Info : Audio Coding 3
    Mode extension : CM (complete main)
    Codec ID : 2000
    Duration : 1h 33mn
    Bit rate mode : Constant
    Bit rate : 192 Kbps
    Channel(s) : 2 channels
    Channel positions : Front: L R
    Sampling rate : 48.0 KHz
    Bit depth : 16 bits
    Compression mode : Lossy
    Stream size : 129 MiB (9%)
    Alignment : Split accross interleaves
    Interleave, duration : 40 ms (1.00 video frame)
    Interleave, preload duration : 500 ms
    Title : English

    Скриншот c названием фильма

    image

    Скриншоты

    image image image image image image image image image image


    More at ibit.to
    And ibit.uno
    And ibit.ws

    Reviews

    Comments

    4 years ago

    что то на скринах ужас какой то

    4 years ago

    Товбина ни у кого не осталось на это кино?

    4 years ago

    Наконец-то нашел этот фильм...Смотрел году в 1988...Помню, ржал как лошадь...Как-то сейчас пойдет...

    4 years ago

    Этот фильм редкостная, ну просто редкостная х-ня... Искал другой, но смотрел тот фильм в 1991 г. почему-то под названием "Суперстукач". Не в обиду релизеру. PS Всё! Нашёл то кинцо. Называется Стукнутый (Влипли!) (Zapped!) (1982)

    4 years ago

    Фильм - раритетище..... В конце 80-х зырил по кабельному в переводе Гаврилова А. Ю. ..... Ну никак не мог найти пару-тройку лет назад. Уже отчаялся найти данный фильм, именно в данном переводе. И тут такое счастье Спасибо тому кто нашёл сей редкостный перевод А. Ю. Гаврилова и свёл аудио и видео.... Спасибо также камрадам, которые выкладывают данное видео.

    Files

    The Supergrass (1985) DVDrip Gavrilov, Ivanov, Eng.avi 1.5 GB

    Stream

    Downloading Seeding The Supergrass (1985) DVDrip Gavrilov, Ivanov, Eng.avi from to 0 peers.
    of
    0 b/s / ↗0 b/s