• 5
  • 0
  • 664
  • done
Sponsored Downloadondemand_video
  • The Square (2017).720p.h264.ita.eng.Sub.ita.NUita.eng-MIRCrew
  • 2.9 GB
  • robbyrs
  • Square 2017 720p h264 NUita MIRCrew ita eng Sub
  • English
  • HD
69%

The Square (2017)

  • Drama
  • A prestigious Stockholm museum's chief art curator finds himself in times of both professional and personal crisis as he attempts to set up a controversial new exhibit.

    expand_more
    English

    Description

    The Square (2017).720p.H264.italian.english.Ac3-5.1.sub.NUita.eng.MIRCrew

    image
    NO FOUND ONLY ORIGINAL RELEASE

    image

    My release is always in double track audio italian and Original audio

    for select it use VLC or dvd player home

    not use wmp

    The Square (2017)

    Qualità MIRCrew in HD 720p da 2,9 gb

    image

    image

    image

    GENERE: Drammatico

    REGIA: Ruben Östlund

    SCENEGGIATURA: Ruben Östlund

    ANNO: 2017

    REGIA: Ruben Östlund

    PAESE: Svezia, Germania, Francia, Danimarca

    DURATA: 145 Min

    image

    Elisabeth Moss, Dominic West, Claes Bang, Terry Notary, Linda Anborg, Annica Liljeblad

    image

    Protagonista del film è Christian, curatore di un importante museo di arte contemporanea di Stoccolma, nonché padre amorevole di due bambine. Nel museo c'è grande fermento per il debutto di un'installazione chiamata "The Square", che invita all'altruismo e alla condivisione, ma quando gli viene rubato il cellulare per strada.....................

    image

    A prestigious Stockholm museum's chief art curator finds himself in times of both professional and personal crisis as he attempts to set up a controversial new exhibit.

    image

    image

    image image image

    image

    [spoiler]

    General

    Unique ID : 131468428493334866652308484280213534835 (0x62E7E5F825D4A6F9A9D80828C6DB7873)

    Complete name : The Square (2017).720p.h264.ita.eng.Sub.ita.NUita.eng-MIRCrewThe Square (2017).720p.h264.ita.eng.Sub.ita.NUita.eng-MIRCrew.mkv

    Format : Matroska

    Format version : Version 2

    File size : 2.91 GiB

    Duration : 2h 31mn

    Overall bit rate : 2 743 Kbps

    Movie name : MIRCrew

    Encoded date : UTC 2018-03-24 17:45:47

    Writing application : Lavf54.63.100

    Writing library : Lavf54.63.100

    COPYRIGHT : robbyrs-ilcorsaroverde

    Video

    ID : 1

    Format : AVC

    Format/Info : Advanced Video Codec

    Format profile : [email protected]
    Format settings, CABAC : Yes

    Format settings, ReFrames : 2 frames

    Codec ID : V_MPEG4/ISO/AVC

    Duration : 2h 31mn

    Bit rate : 1 850 Kbps

    Width : 1 280 pixels

    Height : 688 pixels

    Display aspect ratio : 16:9

    Frame rate mode : Variable

    Frame rate : 24.000 fps

    Color space : YUV

    Chroma subsampling : 4:2:0

    Bit depth : 8 bits

    Scan type : Progressive

    Bits/(Pixel*Frame) : 0.088

    Stream size : 1.90 GiB (65%)

    Writing library : x264 core 130 r2273

    Encoding settings : cabac=1 / ref=2 / deblock=1:0:0 / analyse=0x1:0x131 / me=hex / subme=7 / psy=1 / psyrd=1.00:0.00 / mixedref=0 / merange=16 / chromame=1 / trellis=1 / 8x8dct=0 / cqm=0 / deadzone=21,11 / fastpskip=1 / chromaqpoffset=-2 / threads=3 / lookaheadthreads=1 / slicedthreads=0 / nr=0 / decimate=1 / interlaced=0 / bluraycompat=0 / constrainedintra=0 / bframes=3 / bpyramid=0 / badapt=1 / bbias=0 / direct=3 / weightb=1 / opengop=0 / weightp=2 / keyint=240 / keyintmin=24 / scenecut=40 / intrarefresh=0 / rclookahead=40 / rc=abr / mbtree=1 / bitrate=1850 / ratetol=1.0 / qcomp=0.60 / qpmin=10 / qpmax=69 / qpstep=4 / vbvmaxrate=24000 / vbvbufsize=24000 / nalhrd=none / ipratio=1.40 / aq=1:1.00

    Language : Italian

    Default : Yes

    Forced : No

    DURATION : 02:31:24.584000000

    NUMBEROFFRAMES : 218030

    NUMBEROFBYTES : 13114126331

    STATISTICSWRITING_APP : mkvmerge v9.5.0 ('Quiet Fire') 64bit

    STATISTICSWRITINGDATEUTC : 2018-03-22 11:59:56

    STATISTICSTAGS : BPS DURATION NUMBEROFFRAMES NUMBEROFBYTES

    Audio #1

    ID : 2

    Format : AC-3

    Format/Info : Audio Coding 3

    Mode extension : CM (complete main)

    Codec ID : A_AC3

    Duration : 2h 31mn

    Bit rate mode : Constant

    Bit rate : 448 Kbps

    Channel(s) : 6 channels

    Channel positions : Front: L C R, Side: L R, LFE

    Sampling rate : 48.0 KHz

    Bit depth : 16 bits

    Compression mode : Lossy

    Delay relative to video : 1mn 5s

    Stream size : 487 MiB (16%)

    Title : AC3 ITA

    Language : Italian

    Default : No

    Forced : No

    DURATION : 02:31:50.016000000

    NUMBEROFFRAMES : 284688

    NUMBEROFBYTES : 728801280

    STATISTICSWRITING_APP : mkvmerge v9.5.0 ('Quiet Fire') 64bit

    STATISTICSWRITINGDATEUTC : 2018-03-22 11:59:56

    STATISTICSTAGS : BPS DURATION NUMBEROFFRAMES NUMBEROFBYTES

    Audio #2

    ID : 3

    Format : AC-3

    Format/Info : Audio Coding 3

    Mode extension : CM (complete main)

    Codec ID : A_AC3

    Duration : 2h 31mn

    Bit rate mode : Constant

    Bit rate : 448 Kbps

    Channel(s) : 6 channels

    Channel positions : Front: L C R, Side: L R, LFE

    Sampling rate : 48.0 KHz

    Bit depth : 16 bits

    Compression mode : Lossy

    Delay relative to video : 1mn 5s

    Stream size : 487 MiB (16%)

    Title : AC3 ENG

    Language : English

    Default : No

    Forced : No

    DURATION : 02:31:24.640000000

    NUMBEROFFRAMES : 283895

    NUMBEROFBYTES : 726771200

    STATISTICSWRITING_APP : mkvmerge v9.5.0 ('Quiet Fire') 64bit

    STATISTICSWRITINGDATEUTC : 2018-03-22 11:59:56

    STATISTICSTAGS : BPS DURATION NUMBEROFFRAMES NUMBEROFBYTES

    Menu

    00:00:00.000 : :00:00:00.000

    00:07:05.342 : :00:07:05.342

    00:14:28.201 : :00:14:28.201

    00:20:13.838 : :00:20:13.838

    00:29:27.099 : :00:29:27.099

    00:39:02.590 : :00:39:02.590

    00:50:56.804 : :00:50:56.804

    00:59:52.756 : :00:59:52.756

    01:08:53.129 : :01:08:53.129

    01:16:19.950 : :01:16:19.950

    01:25:27.706 : :01:25:27.706

    01:35:23.259 : :01:35:23.259

    01:45:16.300 : :01:45:16:300

    01:55:01.150 : :01:55:01:150

    02:05:00.150 : :02:05:00:150

    02:15:30.100 : :02:15:30:100

    [/spoiler]


    More at ibit.to
    And ibit.uno
    And ibit.ws

    Reviews

    I'm not a great fan of dramas, but this was an entertaining film. I gave this 4 stars just for the ape scene.

    Comments

    Files

    MIRCrew-ilCorSaRoNeRo.txt 53 B
    The Square (2017).720p.h264.ita.eng.Sub.ita.NUita.eng-MIRCrew.eng.srt 108 kB
    The Square (2017).720p.h264.ita.eng.Sub.ita.NUita.eng-MIRCrew.ita.srt 111 kB
    The Square (2017).720p.h264.ita.eng.Sub.ita.NUita.eng-MIRCrew.mkv 3.1 GB
    The Square (2017).720p.h264.ita.eng.Sub.ita.NUita.eng-MIRCrew.NUita.srt 133 kB
    The Square (2017).720p.h264.ita.eng.Sub.ita.NUita.eng-MIRCrew.srt 153 B
    The Square (2017).720p.h264.ita.eng.Sub.ita.NUita.engMIRCrew -
    MIRCrewilCorSaRoNeRo.txt 53 B
    The Square (2017).720p.h264.ita.eng.Sub.ita.NUita.engMIRCrew.eng.srt 105 kB
    The Square (2017).720p.h264.ita.eng.Sub.ita.NUita.engMIRCrew.ita.srt 108 kB
    The Square (2017).720p.h264.ita.eng.Sub.ita.NUita.engMIRCrew.mkv 2.9 GB
    The Square (2017).720p.h264.ita.eng.Sub.ita.NUita.engMIRCrew.NUita.srt 130 kB
    The Square (2017).720p.h264.ita.eng.Sub.ita.NUita.engMIRCrew.srt 153 B

    Stream

    Downloading Seeding The Square (2017).720p.h264.ita.eng.Sub.ita.NUita.eng-MIRCrew from to 0 peers.
    of
    0 b/s / ↗0 b/s