• 5
  • 0
  • 444
  • done
Sponsored Downloadondemand_video
  • The Ritual (2017) (1080p 10-bit x265 HEVC AC3 5.1 Qman) [UTR]
  • 1.6 GB
  • UTRCorp
  • Ritual 2017 1080p x265 HEVC Qman bit AC3 UTR
  • English
  • HEVC/x265
60%

The Ritual (2017)

  • Horror
  • A group of college friends reunite for a trip to the forest, but encounter a menacing presence in the woods that's stalking them.

    expand_more
    English
  • $10,000,000
  • Description

    image

    image
    image
    image
    image

    Media Information


    ** Media Information **


    Code:

    __ General
    Format : Matroska

    Format version : Version 4 / Version 2

    File size : 1.64 GiB

    Duration : 1 h 34 min

    Overall bit rate : 2 483 kb/s

    Encoded date : UTC 2018-03-12 20:20:46

    Writing application : mkvmerge v19.0.0 ('Brave Captain') 64-bit

    Writing library : libebml v1.3.5 + libmatroska v1.4.8

    Video
    ID : 1

    Format : HEVC

    Format/Info : High Efficiency Video Coding

    Format profile : Main [email protected]@Main

    Codec ID : V_MPEGH/ISO/HEVC

    Duration : 1 h 34 min

    Bit rate : 2 034 kb/s

    Width : 1 920 pixels

    Height : 1 080 pixels

    Display aspect ratio : 16:9

    Frame rate mode : Constant

    Frame rate : 23.976 (24000/1001) FPS

    Color space : YUV

    Chroma subsampling : 4:2:0

    Bit depth : 10 bits

    Bits/(Pixel*Frame) : 0.041

    Stream size : 1.35 GiB (82%)

    Writing library : x265 2.6+49-7219376de42a:[Windows][MSVC 1900][64 bit] 10bit

    Encoding settings : cpuid=1173503 / frame-threads=4 / numa-pools=16 / wpp / no-pmode / no-pme / no-psnr / no-ssim / log-level=2 / input-csp=1 / input-res=1920x1080 / interlace=0 / total-frames=136232 / level-idc=0 / high-tier=1 / uhd-bd=0 / ref=4 / no-allow-non-conformance / no-repeat-headers / annexb / no-aud / no-hrd / info / hash=0 / no-temporal-layers / open-gop / min-keyint=23 / keyint=250 / gop-lookahead=0 / bframes=8 / b-adapt=2 / b-pyramid / bframe-bias=0 / rc-lookahead=50 / lookahead-slices=4 / scenecut=40 / radl=0 / no-intra-refresh / ctu=64 / min-cu-size=8 / rect / no-amp / max-tu-size=32 / tu-inter-depth=1 / tu-intra-depth=1 / limit-tu=0 / rdoq-level=2 / dynamic-rd=0.00 / no-ssim-rd / signhide / no-tskip / nr-intra=0 / nr-inter=0 / no-constrained-intra / no-strong-intra-smoothing / max-merge=3 / limit-refs=3 / limit-modes / me=3 / subme=5 / merange=57 / temporal-mvp / weightp / no-weightb / no-analyze-src-pics / deblock=-3:-3 / no-sao / no-sao-non-deblock / rd=4 / no-early-skip / no-rskip / no-fast-intra / no-tskip-fast / no-cu-lossless / b-intra / no-splitrd-skip / rdpenalty=0 / psy-rd=1.00 / psy-rdoq=5.00 / no-rd-refine / no-lossless / cbqpoffs=-3 / crqpoffs=-3 / rc=crf / crf=22.0 / qcomp=0.60 / qpstep=4 / stats-write=0 / stats-read=0 / ipratio=1.40 / pbratio=1.30 / aq-mode=2 / aq-strength=1.00 / cutree / zone-count=0 / no-strict-cbr / qg-size=32 / no-rc-grain / qpmax=69 / qpmin=0 / no-const-vbv / sar=0 / overscan=0 / videoformat=5 / range=0 / colorprim=2 / transfer=2 / colormatrix=2 / chromaloc=0 / display-window=0 / max-cll=0,0 / min-luma=0 / max-luma=1023 / log2-max-poc-lsb=8 / vui-timing-info / vui-hrd-info / slices=1 / no-opt-qp-pps / no-opt-ref-list-length-pps / no-multi-pass-opt-rps / scenecut-bias=0.05 / no-opt-cu-delta-qp / no-aq-motion / no-hdr / no-hdr-opt / no-dhdr10-opt / analysis-reuse-level=5 / scale-factor=0 / refine-intra=0 / refine-inter=0 / refine-mv=0 / no-limit-sao / ctu-info=0 / no-lowpass-dct / refine-mv-type=0 / copy-pic=1

    Language : English

    Default : Yes

    Forced : No

    Audio
    ID : 2

    Format : E-AC-3

    Format/Info : Enhanced Audio Coding 3

    Format settings, Endianness : Big

    Codec ID : A_EAC3

    Duration : 1 h 34 min

    Bit rate mode : Constant

    Bit rate : 448 kb/s

    Channel(s) : 6 channels

    Channel positions : Front: L C R, Side: L R, LFE

    Sampling rate : 48.0 kHz

    Frame rate : 187.500 FPS (256 spf)

    Compression mode : Lossy

    Stream size : 302 MiB (18%)

    Language : English

    Default : Yes

    Forced : No

    Subtitle
    ID : 3

    Format : UTF-8

    Codec ID : S_TEXT/UTF8

    Codec ID/Info : UTF-8 Plain Text

    Duration : 1 h 29 min

    Bit rate : 53 b/s

    Count of elements : 1238

    Stream size : 34.7 KiB (0%)

    Language : English

    Default : Yes

    Forced : No

    __


    ** Source Information **


    Code:

    __ Release:
    Unknown Source/NO-GROUP

    __

    image

    Note From UTR
    We have no issue with individuals posting or re-uploading our torrents on a platform we aren't on. However, if this is something you'd like to do, please do so in a 'as-is' format. We ask that you do not create a new torrent, include all descriptions you see above including the UTR logo, tags, notes and screenshots. If you'd like to become a permanent poster on a website we don't post to, feel free to get in contact with a UniTeam member.


    More at ibit.to
    And ibit.uno
    And ibit.ws

    Reviews

    I'm sorry, but who the fuck, with no promotional material, and with a name as generic as _The_ fuckin' _Ritual_, told this movie, it was allowed to be so good? _Final rating:★★★½ - I really liked it. Would strongly recommend you give it your time._

    RELEASED IN 2017 and directed by David Bruckner, "The Ritual" is a psychological adventure/horror about four British dudes in their 30s who embark on a hike in remote northern Sweden wherein it slowly becomes evident that some THING is stalking them in the dark woods. Will any of them make it out alive? This is basically a meshing of “The Blair Witch Project” (1999) and “Ogre” (2008), but without the tongue-in-cheekiness of the latter. There’s also a little bit of “The Wicker Man” (1973/2006). Like “Blair Witch” the foul-mouthed protagonists become increasingly horrified in the foreboding forest and eventually turn on one another. But the sylvan cinematography is leagues superior due to the spectacular Romanian locations as opposed to the pedestrian film-work of “Blair Witch” in Maryland (which is understandable since the latter is a “found-footage” flick). I’m not going to give-away the creature, which isn’t fully revealed until the last fifteen minutes, but it’s basically a hybrid of the monsters in “The Relic” (1997) and “Wendigo” (2001), albeit bigger, and superior to both. The second half deviates from the book and people complain about it, but it’s superior to the lame black metal cult of the book IMHO and you can’t beat one potent sequence that smacks of hell-on-earth. There’s also an intriguing element about achieving nigh-immortality at the price of submissive veneration. Despite these positives, the movie’s a little uneventful and humdrum, plus it's lacking in the female department. The movie runs 1 hour 34 minutes and was shot entirely in Romania. WRITERS: Joe Barton wrote the script based on Adam Nevill’s 2012 novel. CAST: The four protagonists are played by Rafe Spall, Arsher Ali, Robert James-Collier and Sam Troughton. GRADE: B/B- (6.5/10)

    The Ritual is a monster movie with psychological ambitions and seemingly a decent budget. The jötunn monster is actually quite good and so are the cyclic re-enactments of the early on liquor store trauma. Unfortunately the rest of the movie is as bland as the title and relies too much on exotism of the deep Swedish forests. Sadly even that component gets watered out and the endgame cultists seem to be some recycled wiccans from Scotland rather than pre-christians of northern Scandinavia.

    Comments

    1 year ago

    thanks for share

    11 years ago

    hi

    7 years ago

    Thanks a lot

    7 years ago

    SEED!!! please

    6 years ago

    seed please

    6 years ago

    thank

    5 years ago

    Thanks a lot!

    2 years ago

    thank you

    2 years ago

    Thank you so much.

    2 years ago

    EP!K.. Thanks guys!

    2 years ago

    Thanks 😀😄

    2 years ago

    Lovely

    2 years ago

    Thank you!

    5 years ago

    thanks

    5 years ago

    You're Welcome!:]

    2 years ago

    THANKS..great show.

    3 years ago

    thanks, great show!

    6 years ago

    thnx man

    6 years ago

    Thanks.

    2 years ago

    thank u

    8 years ago

    no seeder

    8 years ago

    seed please!!!

    10 years ago

    Mange tusen takk

    2 years ago

    You're welcome

    6 years ago

    thank you very much!

    10 years ago

    very cool

    10 years ago

    cheers.

    2 years ago

    Wow thanks

    7 years ago

    thnaks buddy

    1 year ago

    Thank you.

    1 year ago

    thank you bro

    1 year ago

    YAAY THANK YOU

    Files

    The.Ritual.(2017).1080p..10-bit.x265.EAC3.15.0 Qman[UTR].mkv 1.6 GB
    The Ritual (2017) (1080p 10bit x265 HEVC AC3 5.1 Qman) [UTR] -
    The.Ritual.(2017).1080p..10bit.x265.EAC3.15.0 Qman[UTR].mkv 1.6 GB

    Stream

    Downloading Seeding The Ritual (2017) (1080p 10-bit x265 HEVC AC3 5.1 Qman) [UTR] from to 0 peers.
    of
    0 b/s / ↗0 b/s