• 3
  • 0
  • done
Downloadondemand_video
  • The.Principles.of.Lust_2003.DVDRipAVC.mkv
  • 1.5 GB
  • semiramida1970
  • Principles Lust 2003 DVDRipAVC mkv
  • English
  • HD
62%

The Principles of Lust (2003)

  • Drama
  • Crippled by his writer's block, Paul enters into a new, exciting relationship with risk-taking Billy and super-sexy Juliette. As it becomes increasingly tangled, however, he must choose one of them over the other.

    English

    Description

    Принципы похоти / The Principles of Lust

    image

    Страна : Великобритания

    Жанр : драма

    Год выпуска : 2003

    Продолжительность : 01:44:09

    Перевод : Авторский (одноголосый закадровый) Сергей Кузнецов

    Субтитры : нет

    Режиссер : Пенни Вулкок / Penny Woolcock

    В ролях : Алек Ньюман , Марк Уоррен , Сиенна Гиллори , Лара Клифтон, Александр Попплуэлл, Джулиан Бэррэтт, Гвин Холлис, Томми Йэтс, Колин Наттон, Келли Холлис

    Описание : Безработный писатель-неудачник Пол становится перед трудным выбором между любимой женщиной с ребенком и опасным другом Билли, который находится в поисках постоянного кайфа. Вслед за Билли Пол совершает мучительное путешествие в безжалостный мир стрип-клубов, детских боев, наркотиков и разнузданного секса...
    По книге Тима Кука.

    ВНИМАНИЕ! Фильм предназначен для взрослого зрителя!

    Сэмпл : http://multi-up.com/945032

    Качество видео : DVDRip-AVC

    Формат видео : MKV

    Видео : h264 AVC, 720х[email protected]х576, 1827 кбит/с, 25 fps

    Аудио : AC3, 192 кбит/с, 2 ch, 16 бит, 48 КГц

    MediaInfo

    Видео
    Идентификатор : 1
    Формат : AVC
    Формат/Информация : Advanced Video Codec
    Профиль формата : [email protected]
    Параметр CABAC формата : Да
    Параметр ReFrames формата : 4 кадра
    Идентификатор кодека : VMPEG4/ISO/AVC
    Продолжительность : 1 ч. 44 м.
    Битрейт : 1827 Кбит/сек
    Ширина : 720 пикселей
    Высота : 576 пикселей
    Соотношение сторон : 16:9
    Соотношение сторон в оригинале : 16:9
    Режим частоты кадров : Постоянный
    Частота кадров : 25,000 кадров/сек
    Стандарт вещания : PAL
    Цветовое пространство : YUV
    Субдискретизация насыщенности : 4:2:0
    Битовая глубина : 8 бит
    Тип развёртки : Прогрессивная
    Бит/(Пиксели*Кадры) : 0.176
    Размер потока : 1,30 Гбайт (89%)
    Библиотека кодирования : x264 core 130 r2273 b3065e6
    Настройки программы : cabac=1 / ref=4 / deblock=1:-2:-1 / analyse=0x3:0x113 / me=umh / subme=10 / psy=1 / psy
    rd=1.00:0.20 / mixedref=1 / merange=32 / chromame=1 / trellis=2 / 8x8dct=1 / cqm=0 / deadzone=21,11 / fastpskip=0 / chromaqpoffset=-3 / threads=12 / lookaheadthreads=1 / slicedthreads=0 / nr=0 / decimate=0 / interlaced=0 / bluraycompat=0 / constrainedintra=0 / bframes=3 / bpyramid=2 / badapt=2 / bbias=0 / direct=3 / weightb=1 / opengop=0 / weightp=2 / keyint=250 / keyintmin=25 / scenecut=40 / intrarefresh=0 / rclookahead=60 / rc=2pass / mbtree=1 / bitrate=1827 / ratetol=1.0 / qcomp=0.60 / qpmin=0 / qpmax=69 / qpstep=4 / cplxblur=20.0 / qblur=0.5 / vbvmaxrate=50000 / vbvbufsize=50000 / nalhrd=none / ip_ratio=1.40 / aq=1:1.00
    Default : Да
    Forced : Нет

    Аудио
    Идентификатор : 2
    Формат : AC-3
    Формат/Информация : Audio Coding 3
    Расширение режима : CM (complete main)
    Параметр Endianness формата : Big
    Идентификатор кодека : A_AC3
    Продолжительность : 1 ч. 44 м.
    Вид битрейта : Постоянный
    Битрейт : 192 Кбит/сек
    Каналы : 2 канала
    Расположение каналов : Front: L R
    Частота : 48,0 КГц
    Битовая глубина : 16 бит
    Метод сжатия : С потерями
    Размер потока : 143 Мбайт (10%)
    Default : Да
    Forced : Нет

    Скриншот c названием фильма

    image

    Скриншоты

    image image image image image image


    More at ibit.to
    And ibit.uno
    And ibit.am
    And ibit.ws

    Reviews

    Comments

    7 years ago

    в 3-ем году могли бы и острее снять, тем паче что не сша - абсолютно ничего безжалостного или разнузданного я вообще не увидел. может это вообще не арт-хаус?

    7 years ago

    zishao, а артхаус подразумевает нечто "безжалостное или разнузданное"? Артхаусом сейчас принято называть "кино не для всех", кино "не для развлечения", проще говоря, тО, что не помещается в прокрустово ложе общепринятых жанров.

    7 years ago

    semiramida1970 да я в курсе, что здесь выкладывают - и именно поэтому хочу, чтобы описание было не рекламным трюком, не личной точкой зрения, а отражало факты. скажем так, фильм настолько не дотягивает до описания, что свободно может раздаваться на общих основаниях. вот такое мое мнение.

    7 years ago

    zishao, как сказал Жан Ренуар, если вы можете словами описать фильм, то это не фильм, а дерьмо.

    Files

    The.Principles.of.Lust_2003.DVDRipAVC.mkv 1.5 GB

    Stream

    Downloading Seeding The.Principles.of.Lust_2003.DVDRipAVC.mkv from to 0 peers.
    of
    0 b/s / ↗0 b/s