• 4
  • 4
  • 200
  • done
Sponsored Downloadondemand_video
51%

The Possession of Hannah Grace (2018)

  • Horror Mystery Thriller Drama
  • When a cop who is just out of rehab takes the graveyard shift in a city hospital morgue, she faces a series of bizarre, violent events caused by an evil entity in one of the corpses.

    expand_more
    English
  • $7,700,000
  • Description

    image

    image

    image

    **The Possession of Hannah Grace (2018) 720p BluRay x264 Dual Audio [Hindi - English] DD5.1 - ESUBS ~ Ranvijay

    **

    Hindi Audio Credit :- NoNaM3 (Thanks)

    Buy RDP Online

    image

    **
    Format                                   : Matroska

    Format version                           : Version 4 / Version 2

    File size                                : 1.22 GiB

    Duration                                 : 1 h 25 min

    Overall bit rate                         : 2 044 kb/s

    Movie name                               : The Possession of Hannah Grace (2018) 720p BluRay x264 Dual Audio [Hindi - English] DD5.1 - ESUBS ~ Ranvijay

    Video

    Source :Mkvcage

    ID                                       : 1

    Format                                   : AVC

    Format/Info                              : Advanced Video Codec

    Duration                                 : 1 h 25 min

    Bit rate                                 : 1 203 kb/s

    Width                                    : 1 280 pixels

    Height                                   : 536 pixels

    Display aspect ratio                     : 2.40:1

    Frame rate mode                          : Constant

    Frame rate                               : 23.976 (24000/1001) FPS

    Color space                              : YUV

    Chroma subsampling                       : 4:2:0

    Bit depth                                : 8 bits

    Scan type                                : Progressive

    Bits/(Pixel*Frame)                       : 0.073

    Stream size                              : 738 MiB (59%)

    Title                                    : ~Ranvijay~

    Audio #1

    ID                                       : 2

    Format                                   : AC-3

    Format/Info                              : Audio Coding 3

    Codec ID                                 : A_AC3

    Duration                                 : 1 h 25 min

    Bit rate mode                            : Constant

    Bit rate                                 : 640 kb/s

    Channel(s)                               : 6 channels

    Channel positions                        : Front: L C R, Side: L R, LFE

    Sampling rate                            : 48.0 kHz

    Frame rate                               : 31.250 FPS (1536 SPF)

    Bit depth                                : 16 bits

    Compression mode                         : Lossy

    Stream size                              : 393 MiB (31%)

    Title                                    : ~Ranvijay~

    Language                                 : Hindi

    Service kind                             : Complete Main

    Default                                  : Yes

    Forced                                   : Yes

    Audio #2

    ID                                       : 3

    Format                                   : AC-3

    Format/Info                              : Audio Coding 3

    Codec ID                                 : A_AC3

    Duration                                 : 1 h 25 min

    Bit rate mode                            : Constant

    Bit rate                                 : 192 kb/s

    Channel(s)                               : 6 channels

    Channel positions                        : Front: L C R, Side: L R, LFE

    Sampling rate                            : 48.0 kHz

    Frame rate                               : 31.250 FPS (1536 SPF)

    Bit depth                                : 16 bits

    Compression mode                         : Lossy

    Stream size                              : 118 MiB (9%)

    Title                                    : ~Ranvijay~

    Language                                 : English

    Service kind                             : Complete Main

    Default                                  : No

    Forced                                   : No

    Text #1

    ID                                       : 4

    Format                                   : VobSub

    Muxing mode                              : zlib

    Codec ID                                 : S_VOBSUB

    Codec ID/Info                            : Picture based subtitle format used on DVDs

    Duration                                 : 1 h 20 min

    Bit rate                                 : 5 458 b/s

    Count of elements                        : 603

    Stream size                              : 3.15 MiB (0%)

    Title                                    : ~Ranvijay~

    Language                                 : English

    Default                                  : Yes

    Forced                                   : Yes

    Text #2

    ID                                       : 5

    Format                                   : VobSub

    Muxing mode                              : zlib

    Codec ID                                 : S_VOBSUB

    Codec ID/Info                            : Picture based subtitle format used on DVDs

    Duration                                 : 1 h 23 min

    Bit rate                                 : 6 953 b/s

    Count of elements                        : 831

    Stream size                              : 4.13 MiB (0%)

    Title                                    : ~Ranvijay~

    Language                                 : English

    Default                                  : No

    Forced                                   : No**

    image
    image
    image
    image
    image
    image

    image

    Don't walk as you are king, walk as you don't care who the king is....!!

    image


    More at ibit.to
    And ibit.uno
    And ibit.ws

    Reviews

    Comments

    5 months ago

    THANKS BRO.BRO 1080P JALDI

    5 months ago

    K.G.F Chapter 1 (2018) BRO WAITING YOURS RIP

    5 months ago

    Goosebumps 2 please upload in your rip I am waiting for upload today and kgf chapter 1 also

    Files

    SpecialRDP - Premium & Affordable Web Hosting Solution.url -
    Sample - The Possession of Hannah Grace (2018) 720p BluRay x264 Dual Audio [Hindi - English] DD5.1 - ESUBS ~ Ranvijay.mkv 16 MB
    The Possession of Hannah Grace (2018) 720p BluRay x264 Dual Audio [Hindi - English] DD5.1 - ESUBS ~ Ranvijay.mkv 1.2 GB
    The Possession of Hannah Grace (2018) 720 -
    SpecialRDP Premium & Affordable Web Host 48 B
    Sample The Possession of Hannah Grace (2 16 MB

    Stream

    Downloading Seeding The Possession of Hannah Grace (2018) 720p BluRay x264 Dual Audio [Hindi - English] DD5.1 - ESUBS ~ Ranvijay from to 0 peers.
    of
    0 b/s / ↗0 b/s