• 0
  • 0
  • 100
Sponsored Downloadondemand_video
51%

The Possession of Hannah Grace (2018)

  • Horror Mystery Thriller Drama
  • When a cop who is just out of rehab takes the graveyard shift in a city hospital morgue, she faces a series of bizarre, violent events caused by an evil entity in one of the corpses.

    expand_more
    English
  • $7,700,000
  • Description

    The Possession of Hannah Grace 2018 1080p BluRay x264 Eng-Hindi AC3 DD 5.1 [Team SSX]

    image

    **General

    Format : Matroska

    Format version : Version 4

    File size : 2.06 GiB

    Duration : 1 h 25 min

    Overall bit rate : 3 434 kb/s

    Video

    ID : 2

    Format : AVC

    Format/Info : Advanced Video Codec

    Format profile : [email protected]
    Format settings : CABAC / 5 Ref Frames

    Format settings, CABAC : Yes

    Format settings, RefFrames : 5 frames

    Codec ID : V_MPEG4/ISO/AVC

    Duration : 1 h 25 min

    Bit rate : 2 600 kb/s

    Width : 1 920 pixels

    Height : 808 pixels

    Display aspect ratio : 2.40:1

    Frame rate mode : Constant

    Frame rate : 23.976 (24000/1001) FPS

    Color space : YUV

    Chroma subsampling : 4:2:0

    Bit depth : 8 bits

    Scan type : Progressive

    Bits/(Pixel*Frame) : 0.070

    Stream size : 1.56 GiB (76%)

    Title : Team SSX

    Default : Yes

    Forced : No

    Audio #1

    ID : 3

    Format : AAC LC SBR

    Format/Info : Advanced Audio Codec Low Complexity with Spectral Band Replication

    Commercial name : HE-AAC

    Format settings : Explicit

    Codec ID : A_AAC-2

    Duration : 1 h 25 min

    Bit rate : 192 kb/s

    Channel(s) : 6 channels

    Channel layout : C L R Ls Rs LFE

    Sampling rate : 48.0 kHz

    Frame rate : 23.438 FPS (2048 SPF)

    Compression mode : Lossy

    Delay relative to video : 43 ms

    Stream size : 118 MiB (6%)

    Title : Team SSX

    Language : English

    Default : No

    Forced : No

    Audio #2

    ID : 4

    Format : AC-3

    Format/Info : Audio Coding 3

    Commercial name : Dolby Digital

    Codec ID : A_AC3

    Duration : 1 h 25 min

    Bit rate mode : Constant

    Bit rate : 640 kb/s

    Channel(s) : 6 channels

    Channel layout : L R C LFE Ls Rs

    Sampling rate : 48.0 kHz

    Frame rate : 31.250 FPS (1536 SPF)

    Bit depth : 16 bits

    Compression mode : Lossy

    Stream size : 393 MiB (19%)

    Title : Team SSX

    Language : Hindi

    Service kind : Complete Main

    Default : Yes

    Forced : Yes

    Text

    ID : 1

    Format : UTF-8

    Codec ID : S_TEXT/UTF8

    Codec ID/Info : UTF-8 Plain Text

    Duration : 1 h 20 min

    Bit rate : 31 b/s

    Count of elements : 591

    Stream size : 18.6 KiB (0%)

    Title : Team SSX

    Language : English

    Default : Yes

    Forced : No

    image
    image
    image
    image
    image
    image
    image
    image

    Thanx to NoNAM3 for HINDI Audio**


    More at ibit.to
    And ibit.uno
    And ibit.ws

    Reviews

    Comments

    Files

    -=Sample=-.mkv 90 MB
    The Possession of Hannah Grace 2018 1080p BluRay x264 Eng-Hindi AC3 DD 5.1 [Team SSX] .mkv 2.1 GB
    The Possession of Hannah Grace 2018 1080p BluRay x264 EngHindi A -
    =Sample=-.mkv 90 MB

    Stream

    Downloading Seeding The Possession of Hannah Grace 2018 1080p BluRay x264 Eng-Hindi AC3 DD 5.1 [Team SSX] from to 0 peers.
    of
    0 b/s / ↗0 b/s