• 0
  • 0
  • 119
Sponsored Downloadondemand_video
51%

The Possession of Hannah Grace (2018)

  • Horror Mystery Thriller Drama
  • When a cop who is just out of rehab takes the graveyard shift in a city hospital morgue, she faces a series of bizarre, violent events caused by an evil entity in one of the corpses.

    expand_more
    English
  • $7,700,000
  • Description

    image

    _

    Death is Only the Beginning...

    _

    image

    _

    The Possession of Hannah Grace (2018) 1080p 10bit Bluray x265 HEVC [Org BD 5.1 Hindi + DD 5.1 English] ESubs ~ TombDoc

    _

    Code:

    __ Format : Matroska

    Format version : Version 4

    File size : 3.02 GiB

    Duration : 1 h 25 min

    Overall bit rate : 5 048 kb/s

    Writing frontend : TombDoc

    Video

    ID : 1

    Format : HEVC

    Format/Info : High Efficiency Video Coding

    Format profile : Main [email protected]@Main

    Codec ID : V_MPEGH/ISO/HEVC

    Duration : 1 h 25 min

    Bit rate : 4 001 kb/s

    Width : 1 920 pixels

    Height : 800 pixels

    Display aspect ratio : 2.40:1

    Frame rate mode : Constant

    Frame rate : 23.976 (24000/1001) FPS

    Color space : YUV

    Chroma subsampling : 4:2:0

    Bit depth : 10 bits

    Bits/(Pixel*Frame) : 0.109

    Stream size : 2.40 GiB (79%)

    Writing library : x265 3.0_Au+4-dcbec33bfb0f:[Windows][GCC 9.0.1][64 bit] 10bit

    Encoding settings : cpuid=1049583 / frame-threads=5 / numa-pools=16,16 / wpp / no-pmode / no-pme / no-psnr / no-ssim / log-level=2 / input-csp=1 / input-res=1920x800 / interlace=0 / total-frames=123347 / level-idc=0 / high-tier=1 / uhd-bd=0 / ref=4 / no-allow-non-conformance / no-repeat-headers / annexb / no-aud / no-hrd / info / hash=0 / no-temporal-layers / open-gop / min-keyint=23 / keyint=250 / gop-lookahead=0 / bframes=8 / b-adapt=2 / b-pyramid / bframe-bias=0 / rc-lookahead=25 / lookahead-slices=4 / scenecut=40 / radl=0 / no-splice / no-intra-refresh / ctu=64 / min-cu-size=8 / rect / no-amp / max-tu-size=32 / tu-inter-depth=1 / tu-intra-depth=1 / limit-tu=0 / rdoq-level=2 / dynamic-rd=0.00 / ssim-rd / signhide / no-tskip / nr-intra=0 / nr-inter=0 / no-constrained-intra / strong-intra-smoothing / max-merge=3 / limit-refs=3 / limit-modes / me=3 / subme=3 / merange=57 / temporal-mvp / weightp / no-weightb / no-analyze-src-pics / deblock=0:0 / sao / no-sao-non-deblock / rd=4 / no-early-skip / rskip / no-fast-intra / no-tskip-fast / no-cu-lossless / no-b-intra / no-splitrd-skip / rdpenalty=0 / psy-rd=0.00 / psy-rdoq=1.00 / no-rd-refine / no-lossless / cbqpoffs=0 / crqpoffs=0 / rc=abr / bitrate=4000 / qcomp=0.60 / qpstep=4 / stats-write=0 / stats-read=2 / cplxblur=20.0 / qblur=0.5 / ipratio=1.40 / pbratio=1.30 / aq-mode=3 / aq-strength=1.00 / cutree / zone-count=0 / no-strict-cbr / qg-size=32 / no-rc-grain / qpmax=69 / qpmin=0 / no-const-vbv / sar=0 / overscan=0 / videoformat=5 / range=0 / colorprim=2 / transfer=2 / colormatrix=2 / chromaloc=0 / display-window=0 / max-cll=0,0 / min-luma=0 / max-luma=1023 / log2-max-poc-lsb=8 / vui-timing-info / vui-hrd-info / slices=1 / no-opt-qp-pps / no-opt-ref-list-length-pps / no-multi-pass-opt-rps / scenecut-bias=0.05 / no-opt-cu-delta-qp / aq-motion / no-hdr / no-hdr-opt / no-dhdr10-opt / no-idr-recovery-sei / analysis-reuse-level=5 / scale-factor=0 / refine-intra=0 / refine-inter=0 / refine-mv=0 / refine-ctu-distortion=0 / no-limit-sao / ctu-info=0 / no-lowpass-dct / refine-analysis-type=0 / copy-pic=1 / max-ausize-factor=1.0 / no-dynamic-refine / no-single-sei / hevc-aq / qp-adaptation-range=1.00

    Default : Yes

    Forced : No

    Audio #1

    ID : 2

    Format : AC-3

    Format/Info : Audio Coding 3

    Commercial name : Dolby Digital

    Codec ID : A_AC3

    Duration : 1 h 25 min

    Bit rate mode : Constant

    Bit rate : 640 kb/s

    Channel(s) : 6 channels

    Channel layout : L R C LFE Ls Rs

    Sampling rate : 48.0 kHz

    Frame rate : 31.250 FPS (1536 SPF)

    Bit depth : 16 bits

    Compression mode : Lossy

    Stream size : 393 MiB (13%)

    Title : Org BD 5.1 640Kbps ~ TombDoc

    Language : Hindi

    Service kind : Complete Main

    Default : Yes

    Forced : Yes

    Audio #2

    ID : 3

    Format : AC-3

    Format/Info : Audio Coding 3

    Commercial name : Dolby Digital

    Codec ID : A_AC3

    Duration : 1 h 25 min

    Bit rate mode : Constant

    Bit rate : 384 kb/s

    Channel(s) : 6 channels

    Channel layout : L R C LFE Ls Rs

    Sampling rate : 48.0 kHz

    Frame rate : 31.250 FPS (1536 SPF)

    Bit depth : 16 bits

    Compression mode : Lossy

    Stream size : 236 MiB (8%)

    Title : DD 5.1 English

    Language : English

    Service kind : Complete Main

    Default : No

    Forced : No

    Text #1

    ID : 4

    Format : PGS

    Muxing mode : zlib

    Codec ID : S_HDMV/PGS

    Codec ID/Info : Picture based subtitle format used on BDs/HD-DVDs

    Duration : 1 h 20 min

    Bit rate : 19.0 kb/s

    Count of elements : 1218

    Stream size : 11.0 MiB (0%)

    Title : Eng BD-PGS

    Language : English

    Default : No

    Forced : No

    Text #2

    ID : 5

    Format : PGS

    Muxing mode : zlib

    Codec ID : S_HDMV/PGS

    Codec ID/Info : Picture based subtitle format used on BDs/HD-DVDs

    Duration : 1 h 23 min

    Bit rate : 24.0 kb/s

    Count of elements : 1660

    Stream size : 14.3 MiB (0%)

    Title : Eng BD-PGS-SDH

    Language : English

    Default : No

    Forced : No

    Menu

    00:00:00.000 : en:Chapter 01

    00:05:30.956 : en:Chapter 02

    00:10:07.232 : en:Chapter 03

    00:15:24.549 : en:Chapter 04

    00:21:30.289 : en:Chapter 05

    00:26:07.649 : en:Chapter 06

    00:31:27.719 : en:Chapter 07

    00:36:12.212 : en:Chapter 08

    00:41:45.002 : en:Chapter 09

    00:47:07.116 : en:Chapter 10

    00:51:57.823 : en:Chapter 11

    00:56:37.603 : en:Chapter 12

    01:03:44.320 : en:Chapter 13

    01:08:01.786 : en:Chapter 14

    01:13:25.818 : en:Chapter 15

    01:20:45.674 : en:Chapter 16 __

    imageimageimageimageimageimageimageimageimage


    Code:

    ** __ Source: The Possession of Hannah Grace 2018 1080p Blu-ray AVC DTS-HD MA 5.1-LAZERS** __

    image
    image


    More at ibit.to
    And ibit.uno
    And ibit.ws

    Reviews

    Comments

    5 months ago

    Brother Plz Yar Torque 2004 In hindi

    5 months ago

    Torque 2004 In hindi Plz Plz Plz Plz Plz Plz Plz Plz Plz Plz Plz Plz Plz Plz Plz Plz Plz Plz Plz Plz Plz Plz Plz Plz Plz Plz Plz Plz Plz Plz Plz Plz Plz Plz Plz Plz Plz Plz Plz Plz Plz Plz Plz Plz Plz Plz Plz Plz Plz Plz Plz Plz Plz Plz Plz Plz Plz Plz Plz Plz Plz Plz Plz Plz Plz Plz Plz Plz Plz Plz Plz Plz Plz Plz Plz Plz Plz Plz Plz Plz Plz Plz Plz Plz Plz Plz

    Files

    The Possession of Hannah Grace (2018) Sample ~ TD.mkv 47 MB
    The Possession of Hannah Grace (2018) 1080p 10bit Bluray x265 HEVC [Org BD 5.1 Hindi + DD 5.1 English] ESubs ~ TombDoc.mkv 3.0 GB
    The Possession of Hannah Grace 47 MB

    Stream

    Downloading Seeding The Possession of Hannah Grace (2018) 1080p 10bit Bluray x265 HEVC [Org BD 5.1 Hindi + DD 5.1 English] ESubs ~ TombDoc from to 0 peers.
    of
    0 b/s / ↗0 b/s