• 0
  • 0
  • 12
  • done
Sponsored Downloadondemand_video
  • The Passage S01E06 I Want to Know What You Taste Like 1080p 5.1 - 2.0 x264 Phun Psyz
  • 869 MB
  • PhunPsyz
  • Passage S01E06 Want Know Taste 1080p x264 Phun Psyz
  • English
  • HD
69%

The Passage: I Want to Know What You Taste Like(2019)

  • 1 6
  • Action & Adventure Drama Sci-Fi & Fantasy
  • Tensions are high with a viral on the loose outside Project NOAH, as Guilder and Richards hurry to mobilize a search party. Amy volunteers to help in an unexpected way, causing friction between her and Brad. Lear tries to help a lucid Elizabeth understand the tough decisions he's made while at NOAH. A surprising connection between Sykes and Babcock is revealed.

    expand_more
    English

    Description

    www.imdb.com/title/tt9213830/?ref=ttepep6

    Guilder and Richards race to mobilize a search party when a viral gets loose outside Project NOAH; Amy creates friction with Brad when she volunteers to help in an unexpected way.

    Source: NTG (Amzn)

    image
    image
    image
    image
    image

    Format : MPEG-4

    Format profile : Base Media / Version 2

    Codec ID : mp42 (isom/iso2/avc1/mp41)

    File size : 869 MiB

    Duration : 43 min 57 s

    Overall bit rate mode : Variable

    Overall bit rate : 2 765 kb/s

    Writing application : HandBrake 1.2.0 2018121700

    Video

    ID : 1

    Format : AVC

    Format/Info : Advanced Video Codec

    Format profile : [email protected]
    Format settings : CABAC / 1 Ref Frames

    Format settings, CABAC : Yes

    Format settings, ReFrames : 1 frame

    Codec ID : avc1

    Codec ID/Info : Advanced Video Coding

    Duration : 43 min 56 s

    Bit rate : 2 278 kb/s

    Width : 1 920 pixels

    Height : 1 080 pixels

    Display aspect ratio : 16:9

    Frame rate : 23.976 (24000/1001) FPS

    Color space : YUV

    Chroma subsampling : 4:2:0

    Bit depth : 8 bits

    Scan type : Progressive

    Bits/(Pixel*Frame) : 0.046

    Stream size : 716 MiB (82%)

    Writing library : x264 core 157 r2935 545de2f

    Audio #1

    ID : 2

    Format : AC-3

    Format/Info : Audio Coding 3

    Commercial name : Dolby Digital

    Codec ID : ac-3

    Duration : 43 min 57 s

    Bit rate mode : Constant

    Bit rate : 320 kb/s

    Channel(s) : 6 channels

    Channel layout : L R C LFE Ls Rs

    Sampling rate : 48.0 kHz

    Frame rate : 31.250 FPS (1536 SPF)

    Bit depth : 16 bits

    Compression mode : Lossy

    Stream size : 101 MiB (12%)

    Title : Surround

    Language : English

    Audio #2

    ID : 3

    Format : AAC LC

    Format/Info : Advanced Audio Codec Low Complexity

    Codec ID : mp4a-40-2

    Duration : 43 min 57 s

    Bit rate mode : Constant

    Bit rate : 160 kb/s

    Channel(s) : 2 channels

    Channel layout : L R

    Sampling rate : 48.0 kHz

    Frame rate : 46.875 FPS (1024 SPF)

    Compression mode : Lossy

    Stream size : 50.3 MiB (6%)

    Title : Stereo

    Language : English

    Text

    Language : English

    Default : Yes

    Forced : No


    More at ibit.to
    And ibit.uno
    And ibit.ws

    Reviews

    Comments

    Files

    The Passage S01E06 I Want to Know What You Taste Like 1080p 5.1 - 2.0 x264 Phun Psyz.mp4 869 MB
    The Passage S01E06 I Want to Know What You Taste Like 1080p 5.1 2.0 x264 Phun Psyz.mp4 869 MB

    Stream

    Downloading Seeding The Passage S01E06 I Want to Know What You Taste Like 1080p 5.1 - 2.0 x264 Phun Psyz from to 0 peers.
    of
    0 b/s / ↗0 b/s