• 5
  • 8
  • done
Anonymous Downloadondemand_video
  • The Orville S02E09 Identity Part 2 1080p Webrip x265 EAC3 5.1 Goki [SEV].mkv
  • 1.5 GB
  • Goki
  • Orville S02E09 Identity 1080p Webrip x265 EAC3 Goki SEV mkv
  • English
  • HEVC/x265
Warning! Use a VPN When Downloading Torrents!
Your IP Address is ,
Your Internet Provider can see when you download torrents! Hide your IP ADDRESS with a VPN
We strongly recommend hide.me VPN to hide your torrenting. It's FREE!
DOWNLOAD VPN
83%

The Orville: Identity, Pt. 2 (2)(2019)

  • 2 9
  • Drama Comedy Sci-Fi & Fantasy
  • The Kaylons take control of the Orville with the intention of destroying all biological lifeforms

    expand_more
    English

    Description

    imageimage

    imageimage

    imageimageimageimage

    Media Information

    Unique ID                                : 178120392343123559599784114046969436306 (0x8600BD5F12EA91029C0B89493E5DD892)

    Complete name                            : The Orville S02E09 Identity Part 2 1080p Webrip x265 EAC3 5.1 Goki [SEV].mkv

    Format                                   : Matroska

    Format version                           : Version 4

    File size                                : 1.52 GiB

    Duration                                 : 48 min 24 s

    Overall bit rate                         : 4 509 kb/s

    Encoded date                             : UTC 2019-03-01 20:17:18

    Writing application                      : mkvmerge v13.0.0 ('The Juggler') 64bit

    Writing library                          : libebml v1.3.4 + libmatroska v1.4.5 / Lavf57.73.100

    Writing application                      : Internet Friendly Media Encoder v7.7 ('Prism Ark')

    Writing library                          : IFME v7.7 amd64 windows

    Video

    ID                                       : 1

    Format                                   : HEVC

    Format/Info                              : High Efficiency Video Coding

    Format profile                           : Main [email protected]@Main

    Codec ID                                 : V_MPEGH/ISO/HEVC

    Duration                                 : 48 min 24 s

    Bit rate                                 : 3 779 kb/s

    Width                                    : 1 920 pixels

    Height                                   : 1 080 pixels

    Display aspect ratio                     : 16:9

    Frame rate mode                          : Constant

    Frame rate                               : 23.976 (24000/1001) FPS

    Color space                              : YUV

    Chroma subsampling                       : 4:2:0

    Bit depth                                : 10 bits

    Bits/(Pixel*Frame)                       : 0.076

    Stream size                              : 1.28 GiB (84%)

    Writing library                          : x265 2.9+8-27d8424c799d:[Windows][MSVC 1915][64 bit] 10bit

    Encoding settings                        : cpuid=1111039 / frame-threads=3 / numa-pools=8 / wpp / no-pmode / no-pme / no-psnr / no-ssim / log-level=2 / input-csp=1 / input-res=1920x1080 / interlace=0 / total-frames=0 / level-idc=0 / high-tier=1 / uhd-bd=0 / ref=4 / no-allow-non-conformance / no-repeat-headers / annexb / no-aud / no-hrd / info / hash=0 / no-temporal-layers / open-gop / min-keyint=23 / keyint=250 / gop-lookahead=0 / bframes=8 / b-adapt=2 / b-pyramid / bframe-bias=0 / rc-lookahead=100 / lookahead-slices=4 / scenecut=40 / radl=0 / no-intra-refresh / ctu=64 / min-cu-size=8 / no-rect / no-amp / max-tu-size=32 / tu-inter-depth=1 / tu-intra-depth=1 / limit-tu=0 / rdoq-level=2 / dynamic-rd=0.00 / no-ssim-rd / signhide / no-tskip / nr-intra=0 / nr-inter=0 / no-constrained-intra / no-strong-intra-smoothing / max-merge=3 / limit-refs=3 / limit-modes / me=3 / subme=5 / merange=57 / temporal-mvp / weightp / no-weightb / no-analyze-src-pics / deblock=0:0 / sao / no-sao-non-deblock / rd=4 / no-early-skip / rskip / no-fast-intra / no-tskip-fast / no-cu-lossless / no-b-intra / no-splitrd-skip / rdpenalty=0 / psy-rd=1.30 / psy-rdoq=2.00 / no-rd-refine / no-lossless / cbqpoffs=0 / crqpoffs=0 / rc=crf / crf=20.0 / qcomp=0.60 / qpstep=4 / stats-write=0 / stats-read=0 / ipratio=1.40 / pbratio=1.30 / aq-mode=2 / aq-strength=1.10 / cutree / zone-count=0 / no-strict-cbr / qg-size=32 / no-rc-grain / qpmax=69 / qpmin=0 / no-const-vbv / sar=1 / overscan=0 / videoformat=5 / range=0 / colorprim=2 / transfer=2 / colormatrix=2 / chromaloc=0 / display-window=0 / max-cll=0,0 / min-luma=0 / max-luma=1023 / log2-max-poc-lsb=8 / vui-timing-info / vui-hrd-info / slices=1 / no-opt-qp-pps / no-opt-ref-list-length-pps / no-multi-pass-opt-rps / scenecut-bias=0.05 / no-opt-cu-delta-qp / no-aq-motion / no-hdr / no-hdr-opt / no-dhdr10-opt / no-idr-recovery-sei / analysis-reuse-level=5 / scale-factor=0 / refine-intra=0 / refine-inter=0 / refine-mv=0 / no-limit-sao / ctu-info=0 / no-lowpass-dct / refine-mv-type=0 / copy-pic=1 / max-ausize-factor=1.0 / no-dynamic-refine / no-single-sei

    Language                                 : English

    Default                                  : Yes

    Forced                                   : No

    Audio

    ID                                       : 2

    Format                                   : E-AC-3

    Format/Info                              : Enhanced AC-3

    Commercial name                          : Dolby Digital Plus

    Codec ID                                 : A_EAC3

    Duration                                 : 48 min 24 s

    Bit rate mode                            : Constant

    Bit rate                                 : 640 kb/s

    Channel(s)                               : 6 channels

    Channel layout                           : L R C LFE Ls Rs

    Sampling rate                            : 48.0 kHz

    Frame rate                               : 31.250 FPS (1536 SPF)

    Compression mode                         : Lossy

    Delay relative to video                  : 2 ms

    Stream size                              : 222 MiB (14%)

    Language                                 : English

    Service kind                             : Complete Main

    Default                                  : Yes

    Forced                                   : No

    Text

    ID                                       : 3

    Format                                   : UTF-8

    Codec ID                                 : S_TEXT/UTF8

    Codec ID/Info                            : UTF-8 Plain Text

    Language                                 : English

    Default                                  : Yes

    Forced                                   : No

    Source Media Information

    AMZN NTG

    .........................................................................................................................................

    We have no issue with individuals posting or re-uploading our torrents on a platform we aren't on. However, if this is something you'd like to do, please do so in a 'as-is' format. We ask that you do not create a new torrent, include all descriptions you see above including the SEV logo, tags, notes and screenshots. If you'd like to become a permanent poster on a website we don't post to, feel free to get in contact with a Sublime Encoded Video member.

    **We are recruiting/training new members for SEV & seedbox providers as well as people to help out with subtitles.

    As you already know, we deliver quality, so you know the standard.

    If you're interested, feel free to contact any of the team members.**


    More at ibit.to
    And ibit.uno
    And ibit.am
    And ibit.ws

    Reviews

    ok so I watched the first episode of this show and I was expecting more laughs that what I received but I still really liked it the show had lots of action some humor and heart I really liked the crew too they seemed fun so far I think I will keep this one around for awhile and see just how it goes I am liking what I am seeing so far though loads of fun to watch' update I have seen almost every episode of this and its getting funnier every time '

    More heart than humour. Nothing wrong with that, if you find that sort of thing to be entertaining. Perhaps it's because we're talking about the creator of Family Guy, American Dad and A Million Ways to Die in the West. Maybe that set my funny bone's expectations too high but the guy is indeed hilarious and I suppose that was the standard I was hoping for. In any case, this comes off more as pure homage to Star Trek with a little sprinkling of humour here and there. I gave it a chance with three episodes. I'll give it another chance with the fourth episode but if that doesn't tickle me pink, well, this series will be off my list.

    Don't be fooled by the trailer, this is not a comedy show. Sure, it's a little off-beat and more reminiscent of Firefly than Star Trek. It doesn't reinvent anything though and rather uses a lot of things present in similar shows. The crew is interesting and so are their missions. The images are quite breath-taking and of course the story has new elements to it, but it is the same "righteous" and "just" series with a health dose of self-reflection. But two cliches do stand out: cocky alien males, and very mechanical and condescending androids, What they really did wrong though was mess with time-travel for more than an episode. It has been nearly every show's downfall and this is no exception. Season 2 is as far as I recommend going unless they pull a rabbit out of their hat and completely stop messing with time.

    Comments

    Files

    The Orville S02E09 Identity Part 2 1080p Webrip x265 EAC3 5.1 Goki [SEV].mkv 1.5 GB

    Stream

    Downloading Seeding The Orville S02E09 Identity Part 2 1080p Webrip x265 EAC3 5.1 Goki [SEV].mkv from to 0 peers.
    of
    0 b/s / ↗0 b/s