• 8
  • 1
  • 7
Anonymous Downloadondemand_video
  • The.Orville.S02E08.WEB-DL.XviD.B4ND1T69
  • 441 MB
  • B4ND1T69
  • Orville S02E08 WEB XviD B4ND1T69
  • English
  • Divx/Xvid
Warning! Use a VPN When Downloading Torrents!
Your IP Address is ,
Your Internet Provider can see when you download torrents! Hide your IP ADDRESS with a VPN
We strongly recommend Trust.Zone VPN to hide your torrenting. It's FREE!
DOWNLOAD VPN
83%

The Orville: Identity, Pt. 1 (1)(2019)

  • 2 8
  • Drama Comedy Sci-Fi & Fantasy
  • Ed and the crew travel to Isaac's home planet, Kaylon.

    expand_more
    English

    Description

    The.Orville.S02E08.WEB-DL.XviD.B4ND1T69

    image

    **Creator: Seth MacFarlane

    Stars: Seth MacFarlane, Adrianne Palicki, Penny Johnson Jerald

    Plot/Story:

    Identity, Part 1

    When Isaac suddenly shuts down, the crew heads to his home planet Kaylon in the hope his people can fix him.

    General

    Complete name : The.Orville.S02E08.WEB-DL.XviD.B4ND1T69.avi

    Format : AVI

    Format/Info : Audio Video Interleave

    File size : 441 MiB

    Duration : 48 min 25 s

    Overall bit rate : 1 274 kb/s

    Subtitles : Yes...Included(HI)

    Video

    ID : 0

    Format : MPEG-4 Visual

    Format profile : Advanced [email protected]
    Format settings, BVOP : 2

    Format settings, QPel : No

    Format settings, GMC : No warppoints

    Format settings, Matrix : Default (H.263)

    Codec ID : XVID

    Codec ID/Hint : XviD

    Duration : 48 min 25 s

    Bit rate : 1 132 kb/s

    Width : 640 pixels

    Height : 360 pixels

    Display aspect ratio : 16:9

    Frame rate : 23.976 (24000/1001) FPS

    Color space : YUV

    Chroma subsampling : 4:2:0

    Bit depth : 8 bits

    Scan type : Progressive

    Compression mode : Lossy

    Bits/(Pixel*Frame) : 0.205

    Stream size : 392 MiB (89%)

    Writing library : XviD 64

    Audio

    ID : 1

    Format : MPEG Audio

    Format version : Version 1

    Format profile : Layer 3

    Codec ID : 55

    Codec ID/Hint : MP3

    Duration : 48 min 25 s

    Bit rate mode : Constant

    Bit rate : 128 kb/s

    Channel(s) : 2 channels

    Sampling rate : 48.0 kHz

    Compression mode : Lossy

    Stream size : 44.3 MiB (10%)

    Alignment : Aligned on interleaves

    Interleave, duration : 24 ms (0.58 video frame)

    Screenshots:**
    image
    image
    image
    image
    image
    **
    Please Seed For As Long As Possible

    Or At Least 1:1 Ratio...Thanks

    Enjoy Peeps**


    More at ibit.to
    And ibit.uno
    And ibit.ws

    Reviews

    ok so I watched the first episode of this show and I was expecting more laughs that what I received but I still really liked it the show had lots of action some humor and heart I really liked the crew too they seemed fun so far I think I will keep this one around for awhile and see just how it goes I am liking what I am seeing so far though loads of fun to watch' update I have seen almost every episode of this and its getting funnier every time '

    More heart than humour. Nothing wrong with that, if you find that sort of thing to be entertaining. Perhaps it's because we're talking about the creator of Family Guy, American Dad and A Million Ways to Die in the West. Maybe that set my funny bone's expectations too high but the guy is indeed hilarious and I suppose that was the standard I was hoping for. In any case, this comes off more as pure homage to Star Trek with a little sprinkling of humour here and there. I gave it a chance with three episodes. I'll give it another chance with the fourth episode but if that doesn't tickle me pink, well, this series will be off my list.

    Don't be fooled by the trailer, this is not a comedy show. Sure, it's a little off-beat and more reminiscent of Firefly than Star Trek. It doesn't reinvent anything though and rather uses a lot of things present in similar shows. The crew is interesting and so are their missions. The images are quite breath-taking and of course the story has new elements to it, but it is the same "righteous" and "just" series with a health dose of self-reflection. But two cliches do stand out: cocky alien males, and very mechanical and condescending androids, What they really did wrong though was mess with time-travel for more than an episode. It has been nearly every show's downfall and this is no exception. Season 2 is as far as I recommend going unless they pull a rabbit out of their hat and completely stop messing with time.

    Comments

    Files

    1337x text file.txt 100 B
    KAT text file.txt 100 B
    The.Orville.S02E08.WEB-DL.XviD.B4ND1T69.srt 50 kB
    The.Orville.S02E08.WEB-DL.XviD.B4ND1T69.avi 441 MB
    The.Orville.S02E08.WEBDL.XviD.B4ND1T69 -
    The.Orville.S02E08.WEBDL.XviD.B4ND1T69.srt 50 kB
    The.Orville.S02E08.WEBDL.XviD.B4ND1T69.avi 441 MB

    Stream

    Downloading Seeding The.Orville.S02E08.WEB-DL.XviD.B4ND1T69 from to 0 peers.
    of
    0 b/s / ↗0 b/s