• 9
  • 2
  • 43
  • done
Sponsored Downloadondemand_video
  • The Miseducation of Cameron Post 2018 720p WEB-DL x264 [MW]
  • 869 MB
  • moviezworldz
  • Miseducation Cameron Post 2018 720p x264 WEB
  • English
  • HD
71%

The Miseducation of Cameron Post (2018)

  • Drama
  • In 1993, teenager Cameron is sent to a gay conversion therapy center after getting caught with another girl in the back seat of a car on prom night. Run by the strict and severe Dr. Lydia Marsh and her brother, Reverend Rick, the center is built upon repenting for "same sex attraction." In the face of intolerance and denial, Cameron meets a group of fellow sinners including the amputee stoner Jane, and her friend, the Lakota Two-Spirit, Adam. Together, this group of teenagers form an unlikely family as they fight to survive.

    expand_more
    English
  • $900,000
  • Description

    image

    **General

    Format : Matroska

    Format version : Version 4 / Version 2

    File size : 869 MiB

    Duration : 1 h 31 min

    Overall bit rate : 1 325 kb/s

    Video

    ID : 1

    Format : AVC

    Format/Info : Advanced Video Codec

    Format profile : [email protected]
    Format settings : CABAC / 4 Ref Frames

    Format settings, CABAC : Yes

    Format settings, RefFrames : 4 frames

    Codec ID : V_MPEG4/ISO/AVC

    Duration : 1 h 31 min

    Bit rate : 1 200 kb/s

    Width : 1 280 pixels

    Height : 690 pixels

    Display aspect ratio : 1.85:1

    Frame rate mode : Constant

    Frame rate : 23.976 (24000/1001) FPS

    Color space : YUV

    Chroma subsampling : 4:2:0

    Bit depth : 8 bits

    Scan type : Progressive

    Bits/(Pixel*Frame) : 0.057

    Stream size : 784 MiB (90%)

    Writing library : x264 core 155 r2901 7d0ff22

    Default : Yes

    Forced : No

    Audio

    ID : 2

    Format : AAC

    Format/Info : Advanced Audio Codec

    Format profile : LC

    Codec ID : A_AAC-2

    Duration : 1 h 31 min

    Bit rate : 128 kb/s

    Channel(s) : 2 channels

    Channel positions : Front: L R

    Sampling rate : 48.0 kHz

    Frame rate : 46.875 FPS (1024 SPF)

    Compression mode : Lossy

    Stream size : 83.8 MiB (10%)

    Language : English

    Default : Yes

    Forced : No**

    Click To Enlarge Image

    image
    image
    image
    image
    image
    image


    More at ibit.to
    And ibit.uno
    And ibit.ws

    Reviews

    Comments

    Files

    The Miseducation of Cameron Post 2018 720p WEB-DL x264 [MW].mkv 869 MB
    The Miseducation of Cameron Post 2018 720p WEBDL x264 [MW] -
    The Miseducation of Cameron Post 2018 720p WEBDL x264 [MW].mkv 869 MB

    Stream

    Downloading Seeding The Miseducation of Cameron Post 2018 720p WEB-DL x264 [MW] from to 0 peers.
    of
    0 b/s / ↗0 b/s