• 0
  • 0
  • done
Sponsored Downloadondemand_video
  • The.Mentalist.s02.rus.eng.web-dlrip.filmgate.tv
  • 9.3 GB
  • OgreS2009
  • Mentalist
  • Зарубежные сери

Description

image

Менталист / The Mentalist


Год выпуска : 2009

Страна : США

Жанр : детектив

Продолжительность : ~00:43:00

Перевод : Дубляж (ТВ3)

Субтитры : нет

Режиссёр : Крис Лонг, Дэвид Баррет, Дэвид Наттер


В ролях : Саймон Бейкер, Робин Танни, Тим Кенг, Овайн Йомэн, Аманда Риджетти, Грегори Итцин, Бодхи Элфмэн, Винн Эверетт, Аластер Маккензи, Крис Таллман


Описание : Патрик Джейн — детектив и независимый консультант из Калифорнийского Бюро Расследований (КБР), он использует свои отточенные, как лезвие, навыки наблюдения для раскрытия тяжких преступлений. В самом Бюро Джейн известен за частые нарушения протокола, а также за его звездное прошлое: он работал медиумом, однако теперь сам признает, что симулировал паранормальные способности. Роль Джейна в раскрытии целой серии загадочных преступлений высоко ценится коллегами. Но суровый старший агент Тереза Лисбон против того, чтоб Джейн работал с ее отрядом, и то вынужденно признает его успехи, то критикует его за театральность, нарциссизм и отсутствие границ.


Ссылка на предыдущие и альтернативные раздачи : http://rutracker.org/forum/tracker.php?f=189&nm=The+Mentalist


Доп. информация:

Релиз: image

Над релизом работали: OgreS2009, laes


Качество : WEB-DLRip

Формат : AVI

Видео кодек : XviD

Аудио кодек : AC3

Видео : 720x400 (1.80:1), 23.976 fps, XviD MPEG-4 ~1054 kbps avg, 0.15 bit/pixel

Аудио Rus : 48 kHz, AC3 Dolby Digital, 2/0 (L,R) ch, ~192 kbps

Аудио Eng : 48 kHz, AC3 Dolby Digital, 2/0 (L,R) ch, ~192 kbps


Внимание! Раздача ведётся путём добавления новых серий

Внимание! Раздача ведётся путём добавления новых серий; при каждом добавлении создаётся новый торрент. Чтобы начать докачку новой серии, пользователям необходимо сделать следующее:
(1) остановить скачивание,
(2) удалить старый торрент у себя из клиента (старые серии удалять не надо),
(3) скачать новый торрент и запустить его у себя в клиенте вместо старого, при этом указать клиенту путь в старую папку куда и должно происходить скачивание новых серий.

Ваш клиент при этом должен произвести хеширование (проверку) старой папки (если не производит сам - помогите ему сделать это), и будет докачивать только те серии которых у вас ещё нет. Старые серии при этом не удаляются, а продолжают раздаваться!

Eсли вы уже удалили старые серии, то предотвратить повторную закачку старых серий можно, отжав галочку в соответствующих местах при запуске нового торрента. По возможности, желательно не удалять старые серии как можно дольше чтобы релизёр не столько продолжал раздавать старые серии, а смог сконцентрироваться на новых.


Список серий

  1. Redemption

    1. The Scarlet Letter

    2. Red Badge

    3. Red Menace

    4. Red Scare

    5. Black Gold and Red Blood

    6. Red Bulls

    7. His Red Right Hand

    8. A Price Above Rubies

    9. Throwing Fire

    10. Rose-Colored Glasses

    11. Bleeding Heart

    12. Redline

    13. Blood In, Blood Out

    14. Red Herring

    15. Code Red

    16. The Red Box

    17. Aingavite Baa

    18. Blood Money

    19. Red All Over

    20. 18-5-4

    21. Red Letter

    22. Red Sky in the Morning


image Как закачать отдельный файл из торрента или докачать ранее пропущенные файлы торрента! image


MI

Общее

Полное имя : J:SerialThe.Mentalist.s02.rus.eng.web-dlrip.filmgate.tvThe.Mentalist.s02e01.rus.eng.web-dlrip.filmgate.tv.avi
Формат : AVI
Формат/Информация : Audio Video Interleave
Размер файла : 451 Мбайт
Продолжительность : 43 м.
Общий поток : 1454 Кбит/сек
Программа кодирования : VirtualDubModRus 1.5.10.2 (build 2542/release)
Библиотека кодирования : VirtualDubMod build 2542/release

Видео

Идентификатор : 0
Формат : MPEG-4 Visual
Профиль формата : Advanced Simple@L5
Параметр BVOP формата : 8
Параметр QPel формата : Нет
Параметр GMC формата : Без точки перехода
Параметр матрицы формата : Default (H.263)
Режим смешивания : Сжатый битовый поток
Идентификатор кодека : XVID
Идентификатор кодека/Подсказка : XviD
Продолжительность : 43 м.
Битрейт : 1056 Кбит/сек
Ширина : 720 пикс.
Высота : 400 пикс.
Соотношение сторон : 16:9
Частота кадров : 23,976 кадр/сек
Цветовое пространство : YUV
Подвыборка цветности : 4:2:0
Битовая глубина : 8 бит
Тип развёртки : Прогрессивная
Метод сжатия : С потерями
Бит/(Пиксели*Кадры) : 0.153
Размер потока : 327 Мбайт (73%)
Библиотека кодирования : XviD 57

Аудио #1

Идентификатор : 1
Формат : AC-3
Формат/Информация : Audio Coding 3
Расширение режима : CM (complete main)
Идентификатор кодека : 2000
Продолжительность : 43 м.
Вид битрейта : Постоянный
Битрейт : 192 Кбит/сек
Канал(ы) : 2 канала(ов)
Расположение каналов : Front: L R
Частота : 48,0 КГц
Битовая глубина : 16 бит
Метод сжатия : С потерями
Размер потока : 59,5 Мбайт (13%)
Выравнивание : Соединение по промежуткам
Продолжительность промежутка : 42 мс. (1,00 видеокадр)
Время предзагрузки промежутка : 512 ms

Аудио #2

Идентификатор : 2
Формат : AC-3
Формат/Информация : Audio Coding 3
Расширение режима : CM (complete main)
Идентификатор кодека : 2000
Продолжительность : 43 м.
Вид битрейта : Постоянный
Битрейт : 192 Кбит/сек
Канал(ы) : 2 канала(ов)
Расположение каналов : Front: L R
Частота : 48,0 КГц
Битовая глубина : 16 бит
Метод сжатия : С потерями
Размер потока : 59,5 Мбайт (13%)
Выравнивание : Соединение по промежуткам
Продолжительность промежутка : 42 мс. (1,00 видеокадр)
Время предзагрузки промежутка : 512 ms


Скриншоты

imageimageimage
imageimageimage


More at ibit.to
And ibit.uno
And ibit.ws

Comments

8 years ago

Раздача не обновлялась:

8 years ago

надеюсь теперь раздача будет обновляться!

8 years ago

Добавлена 11,12 и 13 серия! Продолжение следует.

8 years ago

только у меня картинка виснет после тех мест, где реклама обычно?

7 years ago

Первая серия. Английская звуковая дорога кликает постоянно. UPD У второй те же траблы. У автора руки из задницы. Втопку такую раздачу.

7 years ago

у меня все норм. отличная картинка и со звуком норм

7 years ago

3 сезон в дубляже ТВ3 начинается с 7 марта в 20:00...

7 years ago

OgreS2009 будете записывать?

6 years ago

Спасибо! Смотрим).

6 years ago

Скачал жене 1-й сезон в переводе Universal Russia, 2-й сезон в переводе ТВ3, 3-й сезон в переводе Паравозика. Второй сезон начала смотреть и бросила. Попросила скачать в другом переводе. сейчас смотрит 3-й сезон, нравится.Но ей нравится больше, если переводят разными голосами.В любом случае, спасибо раздающим, переводчикам и тем, кто озвучивал перевод, за труд.

6 years ago

Glad-kun писал(а): 49317266Первая серия. Английская звуковая дорога кликает постоянно. UPD У второй те же траблы. У автора руки из задницы. Втопку такую раздачу. Аналогично.

6 years ago

Озвучка от студии NovafilmTV , вроде, для телеканала ТВ3, что такое filmgate? Просто рипперы, так ?

6 years ago

Cube10 писал(а): 56256066Озвучка от студии NovafilmTV , вроде, для телеканала ТВ3, что такое filmgate? Просто рипперы, так ? NovafilmTV??? Каким они тут боком?FilmGate - группа релизеров (коим из них являлся я на тот момент), кто занимался раздачей этого сериала. Я записывал звук с ТВ и сводил под американский видеофайл.

6 years ago

Спасибо за сериал!

6 years ago

Посылаю луч ненависти ТВ3. За голос, которым озвучили Джейна.

6 years ago

а что с раздачей, написано что около 150сидов, а на раздаче ни одного?

6 years ago

На украинском торренте есть еще вариант с таким переводом: Rus(Universal Russia), Rus, Eng / Gravi-TVАудіо #1: мова: російська, переклад: багатоголосий закадровий, | Universal Russia Аудіо #2: мова: російська, переклад: двоголосий закадровий, | ChrisTref, kiitosКакой перевод в итоге лучше во втором сезоне?

6 years ago

ребят раздайте дайте скорость пллиссс а то родичи в армию отправят если я не скачаю (((

6 years ago

картинка ужасна, впрочем, звук тоже далек от идеала.. качаю другой релиз

6 years ago

отличный сериал!!! спасибо!!!

6 years ago

Подскажите, пожалуйста, раздачу 2 сезона с озвучкой ТВ3, чтобы не было "Параметр BVOP формата : 8". Очень посмотреть хочется, но такое на бытовых плеерах не идет. Может быть, кто-нибудь сделает? Или сам автор раздачи подсобит?Egoistka "качаю другой релиз" Подскажите, пожалуйста, какой релиз Вы скачали.

6 years ago

С Новафильма, ибо других релизов 2-го сезона нет. MediaInfo Video ID : 0 Format : MPEG-4 Visual Format profile : Advanced Simple@L5 Format settings, BVOP : 1 Format settings, QPel : No Format settings, GMC : No warppoints Format settings, Matrix : Default (MPEG) Codec ID : XVID Codec ID/Hint : XviD Duration : 41mn 33s Bit rate : 1 233 Kbps Width : 720 pixels Height : 400 pixels Display aspect ratio : 16:9 Frame rate : 25.000 fps Color space : YUV Chroma subsampling : 4:2:0 Bit depth : 8 bits Scan type : Progressive Compression mode : Lossy Bits/(Pixel*Frame) : 0.171 Stream size : 366 MiB (90%) Writing library : XviD 57Audio ID : 1 Format : MPEG Audio Format version : Version 1 Format profile : Layer 3 Mode : Joint stereo Mode extension : MS Stereo Codec ID : 55 Codec ID/Hint : MP3 Duration : 41mn 33s Bit rate mode : Constant Bit rate : 128 Kbps Channel(s) : 2 channels Sampling rate : 48.0 KHz Compression mode : Lossy Stream size : 38.0 MiB (9%) Alignment : Aligned on interleaves Interleave, duration : 40 ms (1.00 video frame) Interleave, preload duration : 504 ms

6 years ago

OgreS2009 вчера начал смотреть сериал,по рипу особых замечаний нет,но можно серии нормально нумеровать. Я имею ввиду сначала нумерация идет вроде бы как правильно 01,02 но с 10 серии нумерация идет 10,11 нельзя нормально продолжить нумеровать 010,011 потому как в проводнике винды серии не по очереди выстроились. Соответственно посмотрел я все через одно место.

5 years ago

A26 писал(а): 60233168Нормальный перевод и дубляж, другие не нужны! жаль, что только стерео, ну да ладно. Я его зову "Медалист", а менталист - не звучит. А так, ты кто такой? Медалист? И все в ступоре, а от менталиста решат, что у тебя самого не все дома Чо? Дет сад, ясельки ) Сериал называется так, как его назвали авторы и в начале вечно толдычат что значит это слово.

5 years ago

Безобразный, местами откровенно неправильный перевод. Такое чувство, что переводить текст дали студентам-второсортных языковых курсов. Дело даже не в озвучке, хотя она тоже не очень, а в том, какими невнятными сделали диалоги, и напихали в них неуместного уличного сленга, которого и в помине нет в оригинале:) Креативные, видать ребята попались. Стер весь сезон, едва вымучив второй эпизод.

4 years ago

Народ подскажите в каком лучше переводе смотреть 2 сезон? (Смотрел 1 сезон в озвучке ТВ3 - нормально)

3 years ago

Честно говоря, не понимаю причин жаловаться на качество картинки. Вполне достойное качество, во всяком случае на телевизоре 40 дюймов. Я тут недавно случайно глянула того же Менталиста на ТВ-3 и почувствовала разницу: на ТВ-3 картинка какая-то "замыленная", словно в тумане. По поводу дубляжа: сначала, в первом сезоне, голос Патрика мне действительно казался немного непривычным, чудным что ли. Скачала для разнообразия перевод Universal, так там голос Лисбон показался писклявым, скачала эту раздачу, вполне довольна. На счет правильности перевода ничего не скажу: в оригинале не смотрела, мои знания английского чуть выше среднего (на слух не очень), а знания мужа вообще на уровне старших классов школы. Так что мы не такие спецы в переводе и озвучке/дубляже. А сериал классный! Спасибо автору раздачи!

3 years ago

"Вы уже оставляли спасибо в этой теме" - ...и еще раз с удовольствием оставлю:) Спасибо!

Files

The.Mentalist.s02e10.rus.eng.web-dlrip.filmgate.tv.avi 492 MB
The.Mentalist.s02e04.rus.eng.web-dlrip.filmgate.tv.avi 479 MB
The.Mentalist.s02e12.rus.eng.web-dlrip.filmgate.tv.avi 474 MB
The.Mentalist.s02e13.rus.eng.web-dlrip.filmgate.tv.avi 463 MB
The.Mentalist.s02e07.rus.eng.web-dlrip.filmgate.tv.avi 455 MB
The.Mentalist.s02e06.rus.eng.web-dlrip.filmgate.tv.avi 454 MB
The.Mentalist.s02e01.rus.eng.web-dlrip.filmgate.tv.avi 450 MB
The.Mentalist.s02e17.rus.eng.web-dlrip.filmgate.tv.avi 450 MB
The.Mentalist.s02e18.rus.eng.web-dlrip.filmgate.tv.avi 433 MB
The.Mentalist.s02e16.rus.eng.web-dlrip.filmgate.tv.avi 414 MB
The.Mentalist.s02e19.rus.eng.web-dlrip.filmgate.tv.avi 410 MB
The.Mentalist.s02e21.rus.eng.web-dlrip.filmgate.tv.avi 401 MB
The.Mentalist.s02e05.rus.eng.web-dlrip.filmgate.tv.avi 394 MB
The.Mentalist.s02e23.rus.eng.web-dlrip.filmgate.tv.avi 394 MB
The.Mentalist.s02e11.rus.eng.web-dlrip.filmgate.tv.avi 392 MB
The.Mentalist.s02e15.rus.eng.web-dlrip.filmgate.tv.avi 390 MB
The.Mentalist.s02e20.rus.eng.web-dlrip.filmgate.tv.avi 387 MB
The.Mentalist.s02e09.rus.eng.web-dlrip.filmgate.tv.avi 381 MB
The.Mentalist.s02e02.rus.eng.web-dlrip.filmgate.tv.avi 377 MB
The.Mentalist.s02e03.rus.eng.web-dlrip.filmgate.tv.avi 368 MB
The.Mentalist.s02e14.rus.eng.web-dlrip.filmgate.tv.avi 365 MB
The.Mentalist.s02e08.rus.eng.web-dlrip.filmgate.tv.avi 361 MB
The.Mentalist.s02e22.rus.eng.web-dlrip.filmgate.tv.avi 360 MB

Stream

Downloading Seeding The.Mentalist.s02.rus.eng.web-dlrip.filmgate.tv from to 0 peers.
of
0 b/s / ↗0 b/s