• 4
  • 2
  • done
Sponsored Downloadondemand_video

Description

image

Encode Screenshots (Click for full quality)

image

image

image

image

Media Information

General

Format                                   : Matroska

Format version                           : Version 4 / Version 2

File size                                : 838 MiB

Duration                                 : 41 min 50 s

Overall bit rate                         : 2 799 kb/s

Encoded date                             : UTC 2018-06-05 02:29:29

Writing application                      : mkvmerge v23.0.0 ('The Bride Said No') 64-bit

Writing library                          : libebml v1.3.6 + libmatroska v1.4.9

Video

ID                                       : 1

Format                                   : HEVC

Format/Info                              : High Efficiency Video Coding

Format profile                           : Main [email protected]@Main

Codec ID                                 : V_MPEGH/ISO/HEVC

Duration                                 : 41 min 50 s

Bit rate                                 : 2 157 kb/s

Width                                    : 1 920 pixels

Height                                   : 1 080 pixels

Display aspect ratio                     : 16:9

Frame rate mode                          : Constant

Frame rate                               : 23.976 (24000/1001) FPS

Color space                              : YUV

Chroma subsampling                       : 4:2:0

Bit depth                                : 10 bits

Bits/(Pixel*Frame)                       : 0.043

Stream size                              : 646 MiB (77%)

Writing library                          : x265 2.8+1-478bfe2b7673:[Windows][GCC 8.1.0][64 bit] 10bit

Encoding settings                        : cpuid=1111039 / frame-threads=3 / numa-pools=12 / wpp / no-pmode / no-pme / no-psnr / no-ssim / log-level=2 / input-csp=1 / input-res=1920x1080 / interlace=0 / total-frames=60201 / level-idc=0 / high-tier=1 / uhd-bd=0 / ref=4 / no-allow-non-conformance / no-repeat-headers / annexb / no-aud / no-hrd / info / hash=0 / no-temporal-layers / open-gop / min-keyint=23 / keyint=250 / gop-lookahead=0 / bframes=8 / b-adapt=2 / b-pyramid / bframe-bias=0 / rc-lookahead=70 / lookahead-slices=4 / scenecut=40 / radl=0 / no-intra-refresh / ctu=64 / min-cu-size=8 / no-rect / no-amp / max-tu-size=32 / tu-inter-depth=1 / tu-intra-depth=1 / limit-tu=0 / rdoq-level=2 / dynamic-rd=0.00 / no-ssim-rd / signhide / no-tskip / nr-intra=0 / nr-inter=0 / no-constrained-intra / strong-intra-smoothing / max-merge=3 / limit-refs=3 / limit-modes / me=3 / subme=5 / merange=57 / temporal-mvp / weightp / weightb / no-analyze-src-pics / deblock=-1:-1 / sao / no-sao-non-deblock / rd=4 / no-early-skip / rskip / no-fast-intra / no-tskip-fast / no-cu-lossless / no-b-intra / no-splitrd-skip / rdpenalty=0 / psy-rd=1.70 / psy-rdoq=1.00 / no-rd-refine / no-lossless / cbqpoffs=0 / crqpoffs=0 / rc=crf / crf=22.0 / qcomp=0.60 / qpstep=4 / stats-write=0 / stats-read=0 / ipratio=1.40 / pbratio=1.30 / aq-mode=3 / aq-strength=1.00 / cutree / zone-count=0 / no-strict-cbr / qg-size=32 / no-rc-grain / qpmax=69 / qpmin=0 / no-const-vbv / sar=0 / overscan=0 / videoformat=5 / range=0 / colorprim=2 / transfer=2 / colormatrix=2 / chromaloc=0 / display-window=0 / max-cll=0,0 / min-luma=0 / max-luma=1023 / log2-max-poc-lsb=8 / vui-timing-info / vui-hrd-info / slices=1 / no-opt-qp-pps / no-opt-ref-list-length-pps / no-multi-pass-opt-rps / scenecut-bias=0.00 / no-opt-cu-delta-qp / aq-motion / no-hdr / no-hdr-opt / no-dhdr10-opt / no-idr-recovery-sei / analysis-reuse-level=5 / scale-factor=0 / refine-intra=0 / refine-inter=0 / refine-mv=0 / no-limit-sao / ctu-info=0 / no-lowpass-dct / refine-mv-type=0 / copy-pic=1 / max-ausize-factor=1.0 / no-dynamic-refine / no-single-sei

Default                                  : Yes

Forced                                   : No

Audio

ID                                       : 2

Format                                   : E-AC-3

Format/Info                              : Enhanced Audio Coding 3

Format settings, Endianness              : Big

Codec ID                                 : A_EAC3

Duration                                 : 41 min 50 s

Bit rate mode                            : Constant

Bit rate                                 : 640 kb/s

Channel(s)                               : 6 channels

Channel positions                        : Front: L C R, Side: L R, LFE

Sampling rate                            : 48.0 kHz

Frame rate                               : 187.500 FPS (256 spf)

Compression mode                         : Lossy

Stream size                              : 192 MiB (23%)

Language                                 : English

Default                                  : No

Forced                                   : No

Subtitle

ID                                       : 3

Format                                   : UTF-8

Codec ID                                 : S_TEXT/UTF8

Codec ID/Info                            : UTF-8 Plain Text

Duration                                 : 41 min 20 s

Bit rate                                 : 78 b/s

Count of elements                        : 839

Stream size                              : 23.7 KiB (0%)

Language                                 : English

Default                                  : No

Forced                                   : No

Source Information

Release : The.Mentalist.S06.1080p.AMZN.WEB-DL.DDP5.1.H.264-ViSUM (72.33 GBs)

image

Note from QxR:

Whilst we are happy for our releases to be re-posted on a platform we aren't on, please do so in an 'as-is' format. We ask that you do not create a new torrent, include all descriptions you see above including the QxR logo, tags, notes and screenshots. If you'd like to become a permanent poster on a website we don't post to, feel free to get in contact with a QxR member.


More at ibit.to
And ibit.uno
And ibit.ws

Comments

Files

The Mentalist (2008) - S06E01 - The Desert Rose (1080p AMZN WEB-DL x265 RZeroX).mkv 838 MB
The Mentalist (2008) - S06E02 - Black-Winged Redbird (1080p AMZN WEB-DL x265 RZeroX).mkv 951 MB
The Mentalist (2008) - S06E03 - Wedding in Red (1080p AMZN WEB-DL x265 RZeroX).mkv 952 MB
The Mentalist (2008) - S06E04 - Red Listed (1080p AMZN WEB-DL x265 RZeroX).mkv 856 MB
The Mentalist (2008) - S06E05 - The Red Tattoo (1080p AMZN WEB-DL x265 RZeroX).mkv 977 MB
The Mentalist (2008) - S06E06 - Fire and Brimstone (1080p AMZN WEB-DL x265 RZeroX).mkv 816 MB
The Mentalist (2008) - S06E07 - The Great Red Dragon (1080p AMZN WEB-DL x265 RZeroX).mkv 890 MB
The Mentalist (2008) - S06E08 - Red John (1080p AMZN WEB-DL x265 RZeroX).mkv 1.1 GB
The Mentalist (2008) - S06E09 - My Blue Heaven (1080p AMZN WEB-DL x265 RZeroX).mkv 979 MB
The Mentalist (2008) - S06E10 - Green Thumb (1080p AMZN WEB-DL x265 RZeroX).mkv 854 MB
The Mentalist (2008) - S06E11 - White Lines (1080p AMZN WEB-DL x265 RZeroX).mkv 782 MB
The Mentalist (2008) - S06E12 - The Golden Hammer (1080p AMZN WEB-DL x265 RZeroX).mkv 851 MB
The Mentalist (2008) - S06E13 - Black Helicopters (1080p AMZN WEB-DL x265 RZeroX).mkv 1.0 GB
The Mentalist (2008) - S06E14 - Grey Water (1080p AMZN WEB-DL x265 RZeroX).mkv 786 MB
The Mentalist (2008) - S06E15 - White as the Driven Snow (1080p AMZN WEB-DL x265 RZeroX).mkv 953 MB
The Mentalist (2008) - S06E16 - Violets (1080p AMZN WEB-DL x265 RZeroX).mkv 815 MB
The Mentalist (2008) - S06E17 - Silver Wings of Time (1080p AMZN WEB-DL x265 RZeroX).mkv 811 MB
The Mentalist (2008) - S06E18 - Forest Green (1080p AMZN WEB-DL x265 RZeroX).mkv 954 MB
The Mentalist (2008) - S06E19 - Brown Eyed Girls (1080p AMZN WEB-DL x265 RZeroX).mkv 838 MB
The Mentalist (2008) - S06E20 - Il Tavolo Bianco (1080p AMZN WEB-DL x265 RZeroX).mkv 769 MB
The Mentalist (2008) - S06E21 - Black Hearts (1080p AMZN WEB-DL x265 RZeroX).mkv 701 MB
The Mentalist (2008) - S06E22 - Blue Bird (1080p AMZN WEB-DL x265 RZeroX).mkv 892 MB
The Mentalist (2008) Season 6 S06 (1080p AMZN WEBDL x265 HEVC 10 -
The Mentalist (2008) S06E01 - The Desert Rose (1080p AMZN WEB-D 838 MB
The Mentalist (2008) S06E02 - Black-Winged Redbird (1080p AMZN 951 MB
The Mentalist (2008) S06E03 - Wedding in Red (1080p AMZN WEB-DL 952 MB
The Mentalist (2008) S06E04 - Red Listed (1080p AMZN WEB-DL x26 856 MB
The Mentalist (2008) S06E05 - The Red Tattoo (1080p AMZN WEB-DL 977 MB
The Mentalist (2008) S06E06 - Fire and Brimstone (1080p AMZN WE 816 MB
The Mentalist (2008) S06E07 - The Great Red Dragon (1080p AMZN 890 MB
The Mentalist (2008) S06E08 - Red John (1080p AMZN WEB-DL x265 1.1 GB
The Mentalist (2008) S06E09 - My Blue Heaven (1080p AMZN WEB-DL 979 MB
The Mentalist (2008) S06E10 - Green Thumb (1080p AMZN WEB-DL x2 854 MB
The Mentalist (2008) S06E11 - White Lines (1080p AMZN WEB-DL x2 782 MB
The Mentalist (2008) S06E12 - The Golden Hammer (1080p AMZN WEB 851 MB
The Mentalist (2008) S06E13 - Black Helicopters (1080p AMZN WEB 1.0 GB
The Mentalist (2008) S06E14 - Grey Water (1080p AMZN WEB-DL x26 786 MB
The Mentalist (2008) S06E15 - White as the Driven Snow (1080p A 953 MB
The Mentalist (2008) S06E16 - Violets (1080p AMZN WEB-DL x265 R 815 MB
The Mentalist (2008) S06E17 - Silver Wings of Time (1080p AMZN 811 MB
The Mentalist (2008) S06E18 - Forest Green (1080p AMZN WEB-DL x 954 MB
The Mentalist (2008) S06E19 - Brown Eyed Girls (1080p AMZN WEB- 838 MB
The Mentalist (2008) S06E20 - Il Tavolo Bianco (1080p AMZN WEB- 769 MB
The Mentalist (2008) S06E21 - Black Hearts (1080p AMZN WEB-DL x 701 MB
The Mentalist (2008) S06E22 - Blue Bird (1080p AMZN WEB-DL x265 892 MB

Stream

Downloading Seeding The Mentalist (2008) Season 6 S06 (1080p AMZN WEB-DL x265 HEVC 10bit EAC3 6.0 RZeroX) from to 0 peers.
of
0 b/s / ↗0 b/s