• 2
  • 0
  • done
Anonymous Downloadondemand_video
  • The Loudest Voice (Season 1) WEB-DLRip
  • 1.5 GB
  • wentworth_miller
  • Loudest Voice Season WEB DLRip
  • Зарубежные сериалы
Warning! Use a VPN When Downloading Torrents!
Your IP Address is ,
Your Internet Provider can see when you download torrents! Hide your IP ADDRESS with a VPN
We strongly recommend hide.me VPN to hide your torrenting. It's FREE!
DOWNLOAD VPN
81%

The Loudest Voice: Limited Series(2019)

  • 1
  • Drama
  • The rise and fall of Fox News founder Roger Ailes, focusing primarily on the past decade in which Ailes arguably became the Republican Party’s de facto leader, while flashing back to defining events in his life.

    expand_more
    English
    • 1
    • 2
    • 3
    • 4
    • 5
    • 6
    • 7

    Description

    Самый громкий голос | The Loudest Voice


    image

    Год выпуска : 2019

    Страна : США

    Жанр : Драма

    Продолжительность : ~00:53:00


    Перевод : Профессиональный (многоголосый закадровый) |

    Amedia


    Режиссёр : Кари Скогланд, Джереми Подесва, Стивен Фрирз


    В ролях : Рассел Кроу, Сиенна Миллер, Сет МакФарлейн, Аннабелль Уоллис, Наоми Уоттс, Саймон МакБерни, Алекса Палладино, Джош Стэмберг, МакКензи Эстин, Люси Оуэн


    Описание : Главная звезда шоу — оскароносный Рассел Кроу в невероятном гриме. «Самый громкий голос» — хроника последних десяти лет жизни Роджера Эйлса, генерального директора Fox News, а также медиаконсультанта нескольких президентов США. Основанный на одноименном биографическом бестселлере, сериал затрагивает самые болевые моменты карьеры Эйлса, начиная от его отношений с Дональдом Трампом и заканчивая обвинениями в сексуальных домогательствах


    Ссылка на предыдущие и альтернативные раздачи


    image image imageimage


    Качество : WEB-DLRip

    Формат : AVI

    Видео : XviD, 720x384 (1,85:1), 23.976 кадров/сек, 1600 Кбит/сек

    Аудио Rus : AC3, 48,0 kHz, 2 ch, 192 Кбит/сек |

    Amedia

    Аудио Eng : AC3, 48,0 kHz, 2 ch, 192 Кбит/сек

    Субтитры : Русские, английские (SDH)

    Реклама :

    Отсутствует


    Список серий

    1. 1995
    1. 2001

    MediaInfo

    `Общее
    Полное имя : E:The.Loudest.Voice.S01E01.WEB-DLRip.RGzsRutracker.[Wentworth_Miller].avi
    Формат : AVI
    Формат/Информация : Audio Video Interleave
    Размер файла : 763 Мбайт
    Продолжительность : 53 м. 21 с.
    Общий поток : 1998 Кбит/сек
    Программа кодирования : VirtualDubMod 1.5.10.3 | www.virtualdub-fr.org || (build 2550/release)
    Библиотека кодирования : VirtualDubMod build 2550/release

    Видео
    Идентификатор : 0
    Формат : MPEG-4 Visual
    Профиль формата : Advanced [email protected]
    Настройки формата : BVOP1
    Параметр BVOP формата : 1
    Параметр QPel формата : Нет
    Параметр GMC формата : Без точки перехода
    Параметр матрицы формата : Default (MPEG)
    Идентификатор кодека : XVID
    Идентификатор кодека/Подсказка : XviD
    Продолжительность : 53 м. 21 с.
    Битрейт : 1600 Кбит/сек
    Ширина : 720 пикселей
    Высота : 384 пикселя
    Соотношение сторон : 1,85:1
    Частота кадров : 23,976 (24000/1001) кадра/сек
    Цветовое пространство : YUV
    Субдискретизация насыщенности : 4:2:0
    Битовая глубина : 8 бит
    Тип развёртки : Прогрессивная
    Метод сжатия : С потерями
    Бит/(Пиксели*Кадры) : 0.241
    Размер потока : 611 Мбайт (80%)
    Библиотека кодирования : XviD 67

    Аудио #1
    Идентификатор : 1
    Формат : AC-3
    Формат/Информация : Audio Coding 3
    Коммерческое название : Dolby Digital
    Идентификатор кодека : 2000
    Продолжительность : 53 м. 21 с.
    Вид битрейта : Постоянный
    Битрейт : 192 Кбит/сек
    Каналы : 2 канала
    ChannelLayout : L R
    Частота : 48,0 КГц
    Частота кадров : 31,250 кадров/сек (1536 SPF)
    Битовая глубина : 16 бит
    Метод сжатия : С потерями
    Размер потока : 73,3 Мбайт (10%)
    Выравнивание : Разделение по промежуткам
    Продолжительность промежутка : 42 мс. (1,00 видеокадр)
    Время предзагрузки промежутка : 500 мс.
    ServiceKind/String : Complete Main

    Аудио #2
    Идентификатор : 2
    Формат : AC-3
    Формат/Информация : Audio Coding 3
    Коммерческое название : Dolby Digital
    Идентификатор кодека : 2000
    Продолжительность : 53 м. 21 с.
    Вид битрейта : Постоянный
    Битрейт : 192 Кбит/сек
    Каналы : 2 канала
    ChannelLayout : L R
    Частота : 48,0 КГц
    Частота кадров : 31,250 кадров/сек (1536 SPF)
    Битовая глубина : 16 бит
    Метод сжатия : С потерями
    Размер потока : 73,3 Мбайт (10%)
    Выравнивание : Разделение по промежуткам
    Продолжительность промежутка : 42 мс. (1,00 видеокадр)
    Время предзагрузки промежутка : 500 мс.
    ServiceKind/String : Complete Main `


    Скриншоты

    imageimageimageimage


    Внимание! Раздача ведётся путём добавления новых серий

    Внимание! Раздача ведётся путём добавления новых серий; при каждом добавлении создаётся новый торрент. Чтобы начать докачку новой серии, пользователям необходимо сделать следующее:

    (1)

    остановить скачивание,

    (2)

    удалить старый торрент у себя из клиента (старые серии удалять не надо),

    (3)

    скачать новый торрент и запустить его у себя в клиенте вместо старого, при этом указать клиенту путь в старую папку куда и должно происходить скачивание новых серий.

    Ваш клиент при этом должен произвести хеширование (проверку) старой папки (если не производит сам - помогите ему сделать это), и будет докачивать только те серии которых у вас ещё нет. Старые серии при этом не удаляются, а продолжают раздаваться!

    Eсли вы уже удалили старые серии, то предотвратить повторную закачку старых серий можно, отжав галочку в соответствующих местах при запуске нового торрента. По возможности, желательно не удалять старые серии как можно дольше чтобы релизёр не столько продолжал раздавать старые серии, а смог сконцентрироваться на новых.


    Релиз группы

    :

    image


    More at ibit.to
    And ibit.uno
    And ibit.am
    And ibit.ws

    Reviews

    Comments

    5 months ago

    Просьба ко всем.При перезаливе раздач, имеющих в названии файлов надпись «RGzsRutracker», на другие трекеры / сайты, обязательно размещать в оформлении этот баннер: Всем спасибо за понимание. Приятного просмотра.

    5 months ago

    +

    5 months ago

    √ проверено

    5 months ago

    да уж, с невероятным гримом можно было еще на лоб плюнуть и горбачева сыграть заодно

    5 months ago

    Смотрю, нравится! Снято очень хорошо. Русская озвучка приемлема (без отторжения). Производственная тема. В центре обаятельный пухлячок. Вроде как ничего не придумано, кроме деталей взаимоотношений между людьми, что вызывает дополнительное доверие.

    5 months ago

    Спасибо. Подписка.

    5 months ago
    1. 2001
    5 months ago

    Так это Рассел Кроу! А я смотрю - нравится. Ну теперь понятно почему... - Признаюсь, не узнал!

    Files

    The Loudest Voice (Season 1) WEB-DLRipEngThe.Loudest.Voice.S01E01.WEB-DLRip.RGzsRutracker.[Wentworth_Miller].srt 74 kB
    The Loudest Voice (Season 1) WEB-DLRipEngThe.Loudest.Voice.S01E02.WEB-DLRip.RGzsRutracker.[Wentworth_Miller].srt 64 kB
    The Loudest Voice (Season 1) WEB-DLRipRusThe.Loudest.Voice.S01E01.WEB-DLRip.RGzsRutracker.[Wentworth_Miller].srt 78 kB
    The Loudest Voice (Season 1) WEB-DLRipRusThe.Loudest.Voice.S01E02.WEB-DLRip.RGzsRutracker.[Wentworth_Miller].srt 71 kB
    The Loudest Voice (Season 1) WEB-DLRipThe.Loudest.Voice.S01E01.WEB-DLRip.RGzsRutracker.[Wentworth_Miller].avi 800 MB
    The Loudest Voice (Season 1) WEB-DLRipThe.Loudest.Voice.S01E02.WEB-DLRip.RGzsRutracker.[Wentworth_Miller].avi 712 MB

    Stream

    Downloading Seeding The Loudest Voice (Season 1) WEB-DLRip from to 0 peers.
    of
    0 b/s / ↗0 b/s